Торрент файл
скачать торрент магнет ссылка Добавлен: 08 янв 2012, 17:27
Размер: 197.24 МБ
Сидеров: 0
Личеров: 5
Автор

СообщениеДобавлено: 08 янв 2012, 17:27 

Не в сети
Супермодератор
Аватара пользователя
Дата регистрации:
22 май 2010, 11:03
Возраст: 31
Спасибо: 7509 / 13
Сообщения: 49940
One Republic - All The Right Moves (Jimmy Kimmel live)

Формат: HDTVRip, MKV, H.264, AC3
Песня: All The Right Moves (Jimmy Kimmel live)

Жанр: Rock, Pop-Rock
Продолжительность: 00:03:59
Год выпуска: 2009

Видео: MPEG4 Video (H264) 1280x720 (16:9) 59.94fps6388 Kbps0.116 Bits/Pixel
Аудио: Dolby AC3 48000Hz 6ch384 Kbps

Доп. информация:
Живая версия клипа.

Страна: USA

В настоящее время членами группы являются:
Райан Теддер (Ryan Tedder)-- Вокал, гитара, пианино, клавишные, тумбарин (2002 -настоящее время)
Зак Филкинс (Zach Filkins) -- Гитара, бэк-вокал, скрипка (2002 - настоящее время)
Дрю Браун (Drew Brown) -- Гитара, бас-гитара, вокал, оркестровые колокольчики (2002 -настоящее время)
Эдди Фишер (Eddie Fisher) -- Ударные, перкуссии (2005 - настоящее время)
Брент Катцл (Brent Kutzle) -- Бас-гитара, клавишные, виолончель, бэк-вокал (2007 - настоящее время)

Бывшие члены:
Джерод Беттис - ударные (2002 - 2005)
Тим Майерс - Бас-гитара (2003 - 2007)

Format: Matroska
File size: 197 MiB
Duration: 3mn 59s
Overall bit rate: 6 910 Kbps
Encoded date: UTC 2009-11-18 21:05:44
Writing application: mkvmerge v2.9.7 ('Tenderness') built on Jul1 2009 18:43:35
Writing library: libebml v0.7.7 + libmatroska v0.8.1

Video
ID: 1
Format: AVC
Format/Info: Advanced Video Codec
Format profile: High@L4.1
Format settings, CABAC: Yes
Format settings, ReFrames: 5 frames
Muxing mode: Container profile=Unknown@4.1
Codec ID: V_MPEG4/ISO/AVC
Duration: 3mn 59s
Bit rate: 6 388 Kbps
Width: 1 280 pixels
Height: 720 pixels
Display aspect ratio: 16:9
Frame rate: 59.940 fps
Resolution: 8 bits
Colorimetry: 4:2:0
Scan type: Progressive
Bits/(Pixel*Frame): 0.116
Stream size: 182 MiB (92%)
Writing library: x264 core 77 r1288 a65d361

Audio
ID: 2
Format: AC-3
Format/Info: Audio Coding 3
Codec ID: A_AC3
Duration: 3mn 59s
Bit rate mode: Constant
Bit rate: 384 Kbps
Channel(s): 6 channels
Channel positions: Front: L C R, Surround: L R, LFE
Sampling rate: 48.0 KHz
Stream size: 11.0 MiB (6%)





Поделиться:




реклама партнёра


Вернуться к началу
 Профиль Отправить личное сообщение  
 
   Похожие торренты   Автор   Торрент   Размер 
В этой теме нет новых непрочитанных сообщений. Jimmy Page - Jimmy Page & Friends [2006, Classic Rock, Hard Rock, Blues Rock, Rock'n'Roll, MP3]

PriZraK

0 | 23

243.03 МБ

В этой теме нет новых непрочитанных сообщений. Bob Seger & The Silver Bullet Band-Night Moves [1976, Rock, MP3]

PriZraK

0 | 1

85.39 МБ

В этой теме нет новых непрочитанных сообщений. Jimmy Page & Robert Plant - Walking Into Clarksdale (Japan Edition) [1998, Hard Rock, Blues Rock, MP3]

PriZraK

0 | 2

152.21 МБ

В этой теме нет новых непрочитанных сообщений. This Beautiful Republic - Perceptions [2008, Alt. Rock, MP3]

PriZraK

0 | 1

77.95 МБ

В этой теме нет новых непрочитанных сообщений. K Republic - All Those Things I Left Behind [2010, Progressive Rock, MP3]

PriZraK

0 | 1

92.41 МБ

В этой теме нет новых непрочитанных сообщений. Трипующие / Tripped [S01] [Комедия, 2015] HDTVRip [Jimmy J]

Dracon

164 | 56

1.95 ГБ

В этой теме нет новых непрочитанных сообщений. Uriah Heep - Live at Sweden Rock Festival [2009, Hard Rock, MP3]

PriZraK

2 | 2

130.19 МБ


Начать новую тему Ответить на тему  [ 1 сообщение ] 




Для Мосгорсуда, Роскомнадзора и рекламодателей:: mosgorsud-torrent[собачка]yandex.ru