Торрент файл
скачать торрент магнет ссылка Добавлен: 08 янв 2012, 17:27
Размер: 197.24 МБ
Сидеров: 0
Личеров: 5
Автор

СообщениеДобавлено: 08 янв 2012, 17:27 

Не в сети
Супермодератор
Аватара пользователя
Дата регистрации:
22 май 2010, 11:03
Возраст: 32
Спасибо: 7690 / 13
Сообщения: 49871
One Republic - All The Right Moves (Jimmy Kimmel live)

Формат: HDTVRip, MKV, H.264, AC3
Песня: All The Right Moves (Jimmy Kimmel live)

Жанр: Rock, Pop-Rock
Продолжительность: 00:03:59
Год выпуска: 2009

Видео: MPEG4 Video (H264) 1280x720 (16:9) 59.94fps6388 Kbps0.116 Bits/Pixel
Аудио: Dolby AC3 48000Hz 6ch384 Kbps

Доп. информация:
Живая версия клипа.

Страна: USA

В настоящее время членами группы являются:
Райан Теддер (Ryan Tedder)-- Вокал, гитара, пианино, клавишные, тумбарин (2002 -настоящее время)
Зак Филкинс (Zach Filkins) -- Гитара, бэк-вокал, скрипка (2002 - настоящее время)
Дрю Браун (Drew Brown) -- Гитара, бас-гитара, вокал, оркестровые колокольчики (2002 -настоящее время)
Эдди Фишер (Eddie Fisher) -- Ударные, перкуссии (2005 - настоящее время)
Брент Катцл (Brent Kutzle) -- Бас-гитара, клавишные, виолончель, бэк-вокал (2007 - настоящее время)

Бывшие члены:
Джерод Беттис - ударные (2002 - 2005)
Тим Майерс - Бас-гитара (2003 - 2007)

Format: Matroska
File size: 197 MiB
Duration: 3mn 59s
Overall bit rate: 6 910 Kbps
Encoded date: UTC 2009-11-18 21:05:44
Writing application: mkvmerge v2.9.7 ('Tenderness') built on Jul1 2009 18:43:35
Writing library: libebml v0.7.7 + libmatroska v0.8.1

Video
ID: 1
Format: AVC
Format/Info: Advanced Video Codec
Format profile: High@L4.1
Format settings, CABAC: Yes
Format settings, ReFrames: 5 frames
Muxing mode: Container profile=Unknown@4.1
Codec ID: V_MPEG4/ISO/AVC
Duration: 3mn 59s
Bit rate: 6 388 Kbps
Width: 1 280 pixels
Height: 720 pixels
Display aspect ratio: 16:9
Frame rate: 59.940 fps
Resolution: 8 bits
Colorimetry: 4:2:0
Scan type: Progressive
Bits/(Pixel*Frame): 0.116
Stream size: 182 MiB (92%)
Writing library: x264 core 77 r1288 a65d361

Audio
ID: 2
Format: AC-3
Format/Info: Audio Coding 3
Codec ID: A_AC3
Duration: 3mn 59s
Bit rate mode: Constant
Bit rate: 384 Kbps
Channel(s): 6 channels
Channel positions: Front: L C R, Surround: L R, LFE
Sampling rate: 48.0 KHz
Stream size: 11.0 MiB (6%)





Поделиться:




реклама партнёра


Вернуться к началу
 Профиль Отправить личное сообщение  
 
   Похожие торренты   Автор   Торрент   Размер 
В этой теме нет новых непрочитанных сообщений. Все верные ходы / All the Right Moves [драма, мелодрама, спорт, 1983] HDTVRip, Mvo

salma3

22 | 7

1.37 ГБ

В этой теме нет новых непрочитанных сообщений. Трипующие / Tripped [S01] [Комедия, 2015] HDTVRip [Jimmy J]

Dracon

164 | 56

1.95 ГБ

В этой теме нет новых непрочитанных сообщений. Катастрофа / Catastrophe [S02 01-04] (Бен Тэйлор) [2015, Комедия, HDTVRip | Jimmy J]

Dracon

43 | 6

1.03 ГБ

В этой теме нет новых непрочитанных сообщений. Черный Иисус / Black Jesus [02x01-07] (Майк Клаттенбёрг) [2015, комедия, HDTVRip 720p | Jimmy J]

Nickolas3435

30 | 25

3.85 ГБ

В этой теме нет новых непрочитанных сообщений. Elsa Jean - Sweet Moves (2016) SiteRip

salma3

4 | 0

336.15 МБ

В этой теме нет новых непрочитанных сообщений. Ночные движения / Night Moves [триллер, драма, 2013] HDRip, Avo+Sub

salma3

10 | 3

1.81 ГБ

В этой теме нет новых непрочитанных сообщений. Ход королевой / Knight Moves [триллер, драма, детектив, 1992] DVDRip-AVC, Dub+Mvo+Avo+Sub

salma3

179 | 29

3.14 ГБ


Начать новую тему Ответить на тему  [ 1 сообщение ] 




Для Мосгорсуда, Роскомнадзора и рекламодателей:: mosgorsud-torrent[собачка]yandex.ru