Торрент файл
скачать торрент магнет ссылка Добавлен: 08 янв 2012, 17:26
Размер: 70.4 МБ
Сидеров: 4
Личеров: 6
Автор

СообщениеДобавлено: 08 янв 2012, 17:26 

Не в сети
Супермодератор
Аватара пользователя
Дата регистрации:
22 май 2010, 11:03
Возраст: 32
Спасибо: 7636 / 13
Сообщения: 49923
Kesha - Tik Tok


Формат: DVDRip, AVI, XviD, AC3
Песня: Tik Tok
Жанр: Pop
Продолжительность: 00:03:24
Год выпуска: 2009

Видео: 720x400 (1.80:1), 25 fps, XviD MPEG-4 ~2496 kbps avg, 0.35 bit/pixel
Аудио: 48 kHz, AC3 Dolby Digital, 2/0 (L,R) ch, ~384.00 kbps avg

Кеша Роуз Себерт (англ. Kesha Rose Sebert, родилась 1 марта 1987 года), больше известная как просто Кеша (как Ke$ha) —- американская певица. Несмотря на то, что начало её карьеры приходится на 2006 год, настоящий успех приходит к Кеше в начале 2009-го после её участия в записи невероятно популярного сингла "Right Round" американского рэпераФлоу Райда. Дебютный сингл Кеши "Tik Tok" вышел в августе 2009 года. Выход дебютного альбома певицы состоялся в январе 2010 года.

Format: AVI
Format/Info: Audio Video Interleave
File size: 70.4 MiB
Duration: 3mn 24s
Overall bit rate: 2 890 Kbps
Writing application: VirtualDubMod 1.5.10.2 (build 2540/release)
Writing library: VirtualDub-MPEG2 build 24586/release

Video
ID: 0
Format: MPEG-4 Visual
Format profile: Advanced Simple@L5
Format settings, BVOP: Yes
Format settings, QPel: No
Format settings, GMC: No warppoints
Format settings, Matrix: Default (H.263)
Muxing mode: Packed bitstream
Codec ID: XVID
Codec ID/Hint: XviD
Duration: 3mn 24s
Bit rate: 2 496 Kbps
Width: 720 pixels
Height: 400 pixels
Display aspect ratio: 16:9
Frame rate: 25.000 fps
Resolution: 8 bits
Colorimetry: 4:2:0
Scan type: Progressive
Bits/(Pixel*Frame): 0.347
Stream size: 60.8 MiB (86%)
Writing library: XviD 1.2.1 (UTC 2008-12-04)

Audio
ID: 1
Format: AC-3
Format/Info: Audio Coding 3
Codec ID: 2000
Duration: 3mn 24s
Bit rate mode: Constant
Bit rate: 384 Kbps
Channel(s): 2 channels
Channel positions: L R
Sampling rate: 48.0 KHz
Stream size: 9.35 MiB (13%)
Alignment: Split accross interleaves
Interleave, duration: 40 ms (1.00 video frame)
Interleave, preload duration: 500 ms






Поделиться:




реклама партнёра


Вернуться к началу
 Профиль Отправить личное сообщение  
 
   Похожие торренты   Автор   Торрент   Размер 
В этой теме нет новых непрочитанных сообщений. [POV.com / CumLouder.com] Kesha Ortega (Vitamin K / 10.04.2017) [Big Tits, All Sex]

salma3

36 | 12

301.44 МБ

В этой теме нет новых непрочитанных сообщений. [ReadyOrNotHereICum.com / CumLouder.com] Kesha Ortega & Sheila Ortega - The UnHoly Trinity (29.05.2017) [Threesome, FFM, Big Tits, Deep Throat, All Sex]

salma3

38 | 12

196.73 МБ

В этой теме нет новых непрочитанных сообщений. Что тебя возбуждает 4 / What Gets You Off 4 (2009) DVDRip

salma3

20 | 3

1.36 ГБ

В этой теме нет новых непрочитанных сообщений. Манаконда 6 / Manaconda 6 (2009) DVDRip

salma3

106 | 13

1.36 ГБ

В этой теме нет новых непрочитанных сообщений. Wicked - 2040 (2009) DVDRip-AVC | Rus

salma3

22 | 2

2.75 ГБ

В этой теме нет новых непрочитанных сообщений. Разрыв / Brecha [Драма, 2009] DVDRip, Avo

salma3

33 | 5

1.45 ГБ

В этой теме нет новых непрочитанных сообщений. Инкогнито / Incognito [Комедия, 2009] DVDRip, Mvo

salma3

50 | 2

1.49 ГБ


Начать новую тему Ответить на тему  [ 1 сообщение ] 




Для Мосгорсуда, Роскомнадзора и рекламодателей:: mosgorsud-torrent[собачка]yandex.ru