Торрент файл
скачать торрент магнет ссылка Добавлен: 08 янв 2012, 16:58
Размер: 14.35 ГБ
Сидеров: 0
Личеров: 3
Автор

СообщениеДобавлено: 08 янв 2012, 16:58 

Не в сети
Супермодератор
Аватара пользователя
Дата регистрации:
22 май 2010, 11:03
Возраст: 31
Спасибо: 7509 / 13
Сообщения: 49940
Doro - 20 years a warrior soul

Формат: DVD9, DVD Video, MPEG2, AC3

Песня: 20 years a warrior soul
Жанр: Heavy Metal
Год выпуска: 2007
Доп. информация:

Трехдисковое издание Doro - 20 years a warrior soul. Содержит 3 музыкальный диск как в формате flac, так и в mp3. Приятного просмотра!

[br]
[br]
[br]
[br]
[br]
[br]
[br]
[br]
[br]
[br]

DISC I

Продолжительность:03:05:47
Видео:720x576, 25 fps, MPEG 2, ~3776 kbps avg, 0.364 bit/pixel
Аудио 1:48 KHz, AC3, 448 kbps, 2 ch(L,R)
Аудио 2:48 KHz, AC3, 448 kbps, 6 ch(Front: L C R; Surround: L R LFE)



Warrior Soul - On The Road

1. Intro
2. Earthshaker Rock
3. Doro Rocks Hamburg
4. Haunted Heart
5. From Hamburg To Helmond - The Twilight Zone
6. You're My Family
7. Hot In Helmond / Metal Mayhem In Madrid
8. True As Steel
9. From Madrid To Barcelona - Metal Man Saves Two Souls
10. Above The Ashes
11. Goodbye Barcelona - Hello Langen
12. Strangers Yesterday
13. Fur Immer
14. Langen Farewell
15. Love Me In Black
16. Russia Special Part 1
17. My Majesty
18. Warrior Soul
19. Russia Special Part 2
20. All We Are
21. Outro

Years Anniversary - The Movie

22. Intro
23. I Rule The Ruins
24. Always Live To Win
25. Metal Racer
26. East Meets West
27. Out Of Control
28. Bad Blood
29. Tausend Mal Gelebt
30. White Wedding
31. Egypt
32. A Whiter Shade Of Pale
33. Hellbound
34. You've Got Another Thing Coming
35. Fall For Me Again
36. Unholy Love
37. Fight For Rock
38. Love Me Forever
39. Fur immer
40. Born To Be Wild
41. All We Are & Aftershow



























DISC II

Продолжительность:02:54:19
Видео:720x576, 25 fps, MPEG 2, ~3541 kbps avg, 0.342 bit/pixel
Аудио 1:48 KHz, AC3, 448 kbps, 2 ch(L,R)
Аудио 2:48 KHz, AC3, 448 kbps, 6 ch(Front: L C R; Surround: L R LFE)



Years Anniversary - The Concert

1. Intro
2. I Rule The Ruins
3. Always Live To Win
4. Metal Racer
5. Hellbound
6. True As Steel
7. Burning The Witches
8. Hellraiser
9. East Meets West
10. Metal Tango
11. Out Of Control
12. Unholy Love
13. A Whiter Shade Of Pale
14. Whenever I Think Of You
15. Fur Immer
16. Fall For Me Again
17. Tausend Mal Gelebt
18. White Wedding
19. Drum olo
20. Bad Blood
21. Egypt (The Chains Are On)
22. Brutal And Effective
23. Love Me In Black
24. Earthshaker Rock
25. Love Me Forever
26. Fight
27. Burn It Up
28. You've Got Another Thing Coming
29. Alles Ist Gut
30. All Night
31. Fight For Rock
32. Evil
33. Born To Be Wild
34. All We Are





















DISC III

Формат 1:FLAC, (tracks + .cue), lossless
Формат 2:МР3, tracks , 320kbps
Продолжительность:00:24:40
Треклист:

1. Everything's Lost (3:52)
2. You're My Family [Live] (4:23)
3. My Majesty [Live] (4:35)
4. Above the Ashes (4:33)
5. Fur Immer [Live] (7:17)




Код:
Цитата:
Exact Audio Copy V0.99 prebeta 5 from 4. May 2009

Отчёт EAC об извлечении, выполненном 15. мая 2010, 15:36

Doro / Winter Edition Bonus CD

Дисковод: _NECDVD_RW ND-4570AAdapter: 0ID: 0

Режим чтения: Достоверность
Использование точного потока : Да
Отключение кэша аудио: Нет
Использование указателей C2: Да

Комбинированное смещение чтения/записи: 0
Способность читать области Lead-in и Lead-out: Нет
Заполнение пропущенных сэмплов тишиной: Да
Удаление блоков с тишиной в начале и конце: Нет
При вычислениях CRC использовались нулевые сэмплы : Нет
Интерфейс: Установленный внешний ASPI-интерфейс
Обработка зазоров: Не обнаружено, добавлено к предыдущему треку

Выходной формат: Пользовательский кодировщик
Выбранный битрейт: 768 kBit/s
Качество: Высокий
Добавление ID3-тэга: Нет
Утилита сжатия: C:\Program Files\Exact Audio Copy\FLAC\FLAC.EXE
Дополнительные параметры : -6 -V -T "ARTIST=%a" -T "TITLE=%t" -T "ALBUM=%g" -T "DATE=%y" -T "TRACKNUMBER=%n" -T "GENRE=%m" -T "COMMENT=%e" %s -o %d

TOC извлечённого CD

Трек |Старт| Длительность | Начальный сектор | Конечный сектор
---------------------------------------------------------------------
1|0:00.00 |3:52.50|0|17449
2|3:52.50 |4:23.64|17450|37238
3|8:16.39 |4:36.08|37239|57946
4| 12:52.47 |4:33.47|57947|78468
5| 17:26.19 |7:17.72|78469|111315

Трек1

Имя файла C:\Documents and Settings\Admin\Рабочий стол\Новая папка (3)\Doro\01. Doro - Everything's Lost.wav

Пиковый уровень 96.6 %
Качество трека 100.0 %
CRC копии DB79DD81
Копирование... OK

Трек2

Имя файла C:\Documents and Settings\Admin\Рабочий стол\Новая папка (3)\Doro\02. Doro - You're My Family (Live).wav

Пиковый уровень 94.5 %
Качество трека 100.0 %
CRC копии 1180DC24
Копирование... OK

Трек3

Имя файла C:\Documents and Settings\Admin\Рабочий стол\Новая папка (3)\Doro\03. Doro - My Majesty (Live).wav

Пиковый уровень 96.9 %
Качество трека 100.0 %
CRC копии 6AA6B958
Копирование... OK

Трек4

Имя файла C:\Documents and Settings\Admin\Рабочий стол\Новая папка (3)\Doro\04. Doro - Above the Ashes (Live).wav

Пиковый уровень 96.8 %
Качество трека 100.0 %
CRC копии 49DC1253
Копирование... OK

Трек5

Имя файла C:\Documents and Settings\Admin\Рабочий стол\Новая папка (3)\Doro\05. Doro - Fьr immer (Live).wav

Пиковый уровень 97.3 %
Качество трека 99.9 %
CRC копии 6164B5E8
Копирование... OK

Ошибок не произошло

Конец отчёта


Поделиться:




реклама партнёра


Вернуться к началу
 Профиль Отправить личное сообщение  
 
   Похожие торренты   Автор   Торрент   Размер 
В этой теме нет новых непрочитанных сообщений. Doro - Raise Your Fist In The Air (EP) [08.2012, Heavy Metal, MP3]

PriZraK

0 | 2

36.27 МБ

В этой теме нет новых непрочитанных сообщений. Doro - Powerful Passionate Favorites [2014, Heavy Metal, MP3]

PriZraK

23 | 4

101.95 МБ

В этой теме нет новых непрочитанных сообщений. Doro - Raise Your Fist (Limited Edition) [2012, Heavy Metal, MP3]

PriZraK

3 | 2

137.6 МБ

В этой теме нет новых непрочитанных сообщений. Rain - XXX (30 Years On The Road) [2011, Heavy Metal, MP3]

PriZraK

0 | 2

120.94 МБ

В этой теме нет новых непрочитанных сообщений. Gloryful - The Warrior's Code [2013,Heavy Power Metal,MP3]

PriZraK

0 | 1

128.48 МБ

В этой теме нет новых непрочитанных сообщений. Soul Stealer - Soul Stealer [2008, Heavy Metal, MP3]

PriZraK

0 | 1

119.96 МБ

В этой теме нет новых непрочитанных сообщений. A Tortured Soul - Lucifer's Fate [2010, Heavy Metal, Dark Metal, MP3]

PriZraK

0 | 1

118.92 МБ


Начать новую тему Ответить на тему  [ 1 сообщение ] 




Для Мосгорсуда, Роскомнадзора и рекламодателей:: mosgorsud-torrent[собачка]yandex.ru