Торрент файл
скачать торрент магнет ссылка Добавлен: 08 янв 2012, 16:43
Размер: 7.46 ГБ
Сидеров: 0
Личеров: 4
Автор

СообщениеДобавлено: 08 янв 2012, 16:43 

Не в сети
Супермодератор
Аватара пользователя
Дата регистрации:
22 май 2010, 11:03
Возраст: 32
Спасибо: 7690 / 13
Сообщения: 49893
Madonna - Sticky & Sweet Tour

Формат: DVD9, DVD Video, MPEG2, AC3
Песня: Sticky & Sweet Tour
Жанр: Pop
Продолжительность: 02:05:09
Год выпуска: 2010

Видео: 720x576(PAL 2.35:1), 25,000fps,MPEG VIDEO-2,~9800Kbps
Аудио: 48kHz, АС3, ~448 kbps

Дополнительная Информация: Запись шоу поп-певицы Мадонна составлена по материалам южноамериканской части мирового турне, озаглавленного "Sticky and Sweet", а именно выступлений 4, 6 и 7 декабря 2008 года на концертной площадке River Plate Stadium в Буэнос-Айресе (Аргентина). "Sticky and Sweet" — восьмой по счету мировой тур Мадонны, приуроченный к выходу одиннадцатого альбома поп-исполнительницы "Hard Candy", релиз которого состоялся в конце апреля 2008 года.


01. Intro: The Sweet Machine
02. Candy Shop Medley
03. Beat Goes On Medley [Feat. Kanye West]
04. Human Nature
05. Vogue 2008
06. Die Another Day 2008
07. Into The Groove 2008
08. Heartbeat
09. Borderline
10. She's Not Me
11. Music 2008
12. Rain/Here Comes The Rain Again
13. Devil Wouldn't Recognize You
14. Spanish Lesson
15. Miles Away
16. La Isla Bonita Medley
17. Me Darava/Doli Doli
18. You Must Love Me
19. Don't Cry For Me Argentina
20. Get Stupid Medley
21. 4 Minutes [Feat. Justin Timberlake And Timbaland]
22. Like A Prayer 2008
23. Ray Of Light
24. Like A Virgin 2008
25. Hung Up Medley
26. Give It 2 Me
27. Credits


General
Complete name: E:\Madonna.Sticky.And.Sweet.Tour.2010.DVD-9\VIDEO_TS\VTS_01_3.VOB
Format: MPEG-PS
File size: 1 024 MiB
Duration: 21mn 49s
Overall bit rate: 6 561 Kbps

Video
ID: 224 (0xE0)
Format: MPEG Video
Format version: Version 2
Format profile: Main@Main
Format settings, BVOP: Yes
Format settings, Matrix: Default
Duration: 21mn 48s
Bit rate mode: Variable
Bit rate: 4 446 Kbps
Nominal bit rate: 9 800 Kbps
Width: 720 pixels
Height: 576 pixels
Display aspect ratio: 16:9
Frame rate: 25.000 fps
Standard: PAL
Color space: YUV
Chroma subsampling: 4:2:0
Bit depth: 8 bits
Scan type: Interlaced
Scan order: Top Field First
Bits/(Pixel*Frame): 0.429
Stream size: 694 MiB (68%)

Audio #1
ID: 129 (0x81)
Format: AC-3
Format/Info: Audio Coding 3
Mode extension: CM (complete main)
Duration: 21mn 49s
Bit rate mode: Constant
Bit rate: 448 Kbps
Channel(s): 6 channels
Channel positions: Front: L C R, Side: L R, LFE
Sampling rate: 48.0 KHz
Video delay: -296ms
Stream size: 69.9 MiB (7%)









Поделиться:




реклама партнёра


Вернуться к началу
 Профиль Отправить личное сообщение  
 
   Похожие торренты   Автор   Торрент   Размер 
В этой теме нет новых непрочитанных сообщений. Madonna - The Re-Invention World tour (live) [Поп, 2010] DVDRip

salma3

3 | 1

2.05 ГБ

В этой теме нет новых непрочитанных сообщений. Je Demonte Les Meufs de Mon Quartier / В Моем Районе Строго В Задницу (Oliver Sweet, FFQ \ Sweet prod) [2016 г., All Sex, Anal, Fetish, Public, Oral, WEB-DL]

max77777

2 | 2

1.26 ГБ

В этой теме нет новых непрочитанных сообщений. Christmas Naughty Elves / Рождество Озорных Эльфов (Oliver Sweet, FFQ \ Sweet prod.) [2016 г., All Sex, Anal, Fetish, Blowjob, Big Dicks, Oral,, WEB-DL]

max77777

2 | 0

907.9 МБ

В этой теме нет новых непрочитанных сообщений. Ena Sweet - Ena Sweet: Level 3 (2017) SiteRip

salma3

2 | 0

170.14 МБ

В этой теме нет новых непрочитанных сообщений. Ca Baise Entre Les Cours / Поимели Между Курсами (Oliver Sweet, FFQ \ Sweet prod.) [2016 г., 18 +Teens, All Sex, Anal, Big Ass, Big Dicks, Booty, Fetish, Public, WEB-DL]

max77777

3 | 1

1.38 ГБ

В этой теме нет новых непрочитанных сообщений. Städte Tour / Städte Tour / Обзорная экскурсия по городу (Project 54) [2007 г., All sex, Threesome, DVDRip]

salma3

6 | 2

1.3 ГБ

В этой теме нет новых непрочитанных сообщений. Sexboy Plus Besoin de Sextoy / Секс мальчик и секс-игрушки (Oliver Sweet, FFQ \ Sweet prod.) [2014 г., All Sex, Anal, Oral, Blowjob, WEB-DL]

max77777

7 | 2

1.4 ГБ


Начать новую тему Ответить на тему  [ 1 сообщение ] 




Для Мосгорсуда, Роскомнадзора и рекламодателей:: mosgorsud-torrent[собачка]yandex.ru