Торрент файл
скачать торрент магнет ссылка Добавлен: 08 янв 2012, 16:16
Размер: 5.97 ГБ
Сидеров: 2
Личеров: 10
Автор

СообщениеДобавлено: 08 янв 2012, 16:16 

Не в сети
Супермодератор
Аватара пользователя
Дата регистрации:
22 май 2010, 11:03
Возраст: 31
Спасибо: 7513 / 13
Сообщения: 49940
Haddaway - All The Best. His Greatest Hits & Videos

Формат: DVD9, DVD Video, MPEG2, DVD-AUDIO
Песня: All The Best. His Greatest Hits & Videos
Жанр: Pop
Продолжительность: 03:12:00
Год выпуска: 2007

Видео: 720X576 (PAL 4:3), 25.000fps, MPEG-2 Video, ~5 999Kbps
Аудио: 48.0KHz, MPEG-1 Audio, 2 ch, ~224Kbps

Трейлер к диску

Клипы:
1. What Is love (04:01:16)
2. Life (03:57:01)
3. I Miss You (03:37:14)
4. Rock My heart (03:57:11)
5. Fly Away (04:07:12)
6. Catch A Fire (04:10:07)
7. Lover Be Thy Name (03:40:03)
8. What About Me (04:06:12)
9. Who Do You Love (03:23:03)
10. Spaceman (03:53:20)

Бонусы:
Ремиксы [MPEG-1 Audio]:
1. What Is Love [Club Remix] (05:01:30)
2. Sing About Love (04:40:06)
3. Life [Club Life] (06:13:22)
4. Catch A Fire [House Mix] (06:24:41)
5. Rock My Heart [Celebration Mix] (05:51:07)
6. Shout (03:47:33)
7. I Miss You [Club Mix] (05:25:11)
8. Fly Away [Tinman's Mile High Mix] (06:14:03)

1. Promotion South America [Один из концертов (живой звук)] (24:08:21)
2. The Presentation [Интервью с исполнителем] (04:36:20)
3. The Drive -TV Spot [Трейлер к диску] (00:20:20)
4. Behind The Scenes [Процесс съемки клипов, рабочая обстановка ...](01:02:35:02)

General
Complete name: C:\загрузка\Haddaway_[tfile.ru]\VIDEO_TS\VTS_01_2.VOB
Format: MPEG-PS
File size: 1 024 MiB
Duration: 22mn 38s
Overall bit rate: 6 321 Kbps

Video
ID: 224 (0xE0)
Format: MPEG Video
Format version: Version 2
Format profile: Main@Main
Format settings, Matrix: Default
Duration: 22mn 38s
Bit rate mode: Constant
Bit rate: 5 846 Kbps
Nominal bit rate: 5 999 Kbps
Width: 720 pixels
Height: 576 pixels
Display aspect ratio: 4/3
Frame rate: 25.000 fps
Standard: PAL
Colorimetry: 4:2:0
Scan type: Interlaced
Scan order: Top Field First
Bits/(Pixel*Frame): 0.564
Stream size: 947 MiB (92%)

Audio
ID: 192 (0xC0)
Format: MPEG Audio
Format version: Version 1
Format profile: Layer 2
Duration: 22mn 38s
Bit rate mode: Constant
Bit rate: 224 Kbps
Channel(s): 2 channels
Sampling rate: 48.0 KHz
Resolution: 16 bits
Video delay: -408ms
Stream size: 36.3 MiB (4%)

Menu
Format: DVD-Video























Поделиться:




реклама партнёра


Вернуться к началу
 Профиль Отправить личное сообщение  
 
   Похожие торренты   Автор   Торрент   Размер 
В этой теме нет новых непрочитанных сообщений. Queen - Greatest Hits II [2007, Classic Rock, MP3]

PriZraK

50 | 5

404.93 МБ

В этой теме нет новых непрочитанных сообщений. The Eagles - Greatest Hits [2010, Rock, MP3]

PriZraK

6 | 5

425.06 МБ

В этой теме нет новых непрочитанных сообщений. Wet Wet Wet - The Greatest Hits (2CD) [2004, Rock Ballads, MP3]

PriZraK

1 | 2

210.32 МБ

В этой теме нет новых непрочитанных сообщений. George Harrison - Greatest Hits [2010, Rock, MP3]

PriZraK

1 | 1

366.29 МБ

В этой теме нет новых непрочитанных сообщений. Tom Petty And The Heartbreakers - Greatest Hits (2CD) [2010, Rock, MP3]

PriZraK

0 | 1

362.29 МБ

В этой теме нет новых непрочитанных сообщений. Metallica - The Greatest Hits [2011, Rock, Metal, MP3]

PriZraK

129 | 4

312.23 МБ

В этой теме нет новых непрочитанных сообщений. Kiss - The Greatest Hits (2СD) [2010, Hard rock, MP3]

PriZraK

16 | 3

282.37 МБ


Начать новую тему Ответить на тему  [ 1 сообщение ] 




Для Мосгорсуда, Роскомнадзора и рекламодателей:: mosgorsud-torrent[собачка]yandex.ru