Торрент файл
скачать торрент магнет ссылка Добавлен: 08 янв 2012, 16:06
Размер: 7.32 ГБ
Сидеров: 0
Личеров: 5
Автор

СообщениеДобавлено: 08 янв 2012, 16:06 

Не в сети
Супермодератор
Аватара пользователя
Дата регистрации:
22 май 2010, 11:03
Возраст: 31
Спасибо: 7508 / 13
Сообщения: 49940
Pet Shop Boys - Pandemonium

Формат: DVD9, DVD Video, MPEG2, AC3
Песня: Pandemonium
Жанр: Pop
Продолжительность: 01:38:12
Год выпуска: 2010

Видео: 720X576 (PAL 16:9), 25.000fps, MPEG-2 Video, ~9 800Kbps
Аудио#1: Английский 48.0KHz, AC-3, 2 ch, ~256Kbps
Аудио#2: Английский 48.0KHz, AC-3, 6 ch, ~448Kbps
Аудио#3: Английский 48.0KHz, AC-3, 2 ch, ~256Kbps [Audio Commentary with Pet Shop Boys and Es Devlin]


Треклист:
1. More than a dream/Heart
2. Did you see me coming?
3. Pandemonium/Can you forgive her?
4. Love etc.
5. Building a wall
6. Go west
7. Two divided by zero
8. Why don't we live together?
9. New York City boy
10. Always on my mind
11. Closer to heaven/Left to my own devices
12. Do I have to?
13. King's Cross
14. The way it used to be
15. Jealousy
16. Suburbia
17. What have I done to deserve this?
18. All over the world
19. Se a vida e/Discoteca/Domino dancing/Viva la vida
20. It's a sin
21. Being boring
22. West End girls

Extras:
- My girl (Live at the O2)
- It doesn't often snow at Christmas (Live at the O2)
- Love etc. (Music video)
- Did you see me coming? (Music video)
- All over the world (Music video)
- 2009 BRIT Awards Performance (feat. Lady Gaga and Brandon Flowers)

General
Complete name: C:\загрузка\Pet.Shop.Boys.Pandemonium.Live.The.02.Arena.London.2010.PAL.DVD9\VIDEO_TS\VTS_01_2.VOB
Format: MPEG-PS
File size: 1 024 MiB
Duration: 16mn 21s
Overall bit rate: 8 749 Kbps

Video
ID: 224 (0xE0)
Format: MPEG Video
Format version: Version 2
Format profile: Main@Main
Format settings, Matrix: Default
Duration: 16mn 21s
Bit rate mode: Variable
Bit rate: 7 441 Kbps
Nominal bit rate: 9 800 Kbps
Width: 720 pixels
Height: 576 pixels
Display aspect ratio: 16/9
Frame rate: 25.000 fps
Standard: PAL
Colorimetry: 4:2:0
Scan type: Interlaced
Scan order: Top Field First
Bits/(Pixel*Frame): 0.718
Stream size: 871 MiB (85%)

Audio #1
ID: 128 (0x80)
Format: AC-3
Format/Info: Audio Coding 3
Duration: 16mn 21s
Bit rate mode: Constant
Bit rate: 256 Kbps
Channel(s): 2 channels
Channel positions: L R
Sampling rate: 48.0 KHz
Video delay: -320ms
Stream size: 30.0 MiB (3%)

Audio #2
ID: 129 (0x81)
Format: AC-3
Format/Info: Audio Coding 3
Duration: 16mn 21s
Bit rate mode: Constant
Bit rate: 448 Kbps
Channel(s): 6 channels
Channel positions: Front: L C R, Surround: L R, LFE
Sampling rate: 48.0 KHz
Video delay: -320ms
Stream size: 52.4 MiB (5%)

Audio #3
ID: 130 (0x82)
Format: AC-3
Format/Info: Audio Coding 3
Duration: 16mn 21s
Bit rate mode: Constant
Bit rate: 256 Kbps
Channel(s): 2 channels
Channel positions: L R
Sampling rate: 48.0 KHz
Video delay: -320ms
Stream size: 30.0 MiB (3%)

Menu
Format: DVD-Video






















Поделиться:




реклама партнёра


Вернуться к началу
 Профиль Отправить личное сообщение  
 
   Похожие торренты   Автор   Торрент   Размер 
В этой теме нет новых непрочитанных сообщений. Плохие парни / Bad Boys [боевик, триллер, драма, 1995] DVD9, Mvo+Dub+Sub

salma3

18 | 6

4.91 ГБ

В этой теме нет новых непрочитанных сообщений. Плохие парни 2 / Bad Boys II [боевик, триллер, комедия, 2003] DVD9, Dub+Sub

salma3

23 | 8

5.66 ГБ

В этой теме нет новых непрочитанных сообщений. Emergency - Boys will be boys [1993, Hard Rock, MP3]

PriZraK

0 | 1

94.47 МБ

В этой теме нет новых непрочитанных сообщений. Pandemonium - The Autumn Enigma [2006, Progressive, Melodic Death Metal, MP3]

PriZraK

2 | 4

127.16 МБ

В этой теме нет новых непрочитанных сообщений. Operadyse - Pandemonium (Japanese Edition) [2013, Symphonic Power Metal, MP3]

PriZraK

0 | 1

112.53 МБ

В этой теме нет новых непрочитанных сообщений. Steve Dawson(ex-Saxon) - Pandemonium Circus [2002, Melodic Hard Rock, MP3]

PriZraK

0 | 1

151.62 МБ

В этой теме нет новых непрочитанных сообщений. Кромешный ад Сатаны / Satánico pandemonium [ужасы, триллер, детектив, 1975] DVDRip, Avo

salma3

21 | 6

1.46 ГБ


Начать новую тему Ответить на тему  [ 1 сообщение ] 




Для Мосгорсуда, Роскомнадзора и рекламодателей:: mosgorsud-torrent[собачка]yandex.ru