Торрент файл
скачать торрент магнет ссылка Добавлен: 08 янв 2012, 15:59
Размер: 5.47 ГБ
Сидеров: 0
Личеров: 5
Автор

СообщениеДобавлено: 08 янв 2012, 15:59 

Не в сети
Супермодератор
Аватара пользователя
Дата регистрации:
22 май 2010, 11:03
Возраст: 32
Спасибо: 7690 / 13
Сообщения: 49871
Rock America Hits August

Формат: DVD9, DVD Video, MPEG2, AC3
Жанр: Pop, Rap, Rock, R'n'B, Dance,Trance
Продолжительность: 02:29:39
Год выпуска: 2010

Видео: 720X480 (NTSC 4:3), 29.970fps, MPEG-2 Video, ~7 500Kbps
Аудио: Английский 48.0KHz, AC-3, 2 ch ,~192Kbps


Домашняя страница

1. JENNA ANDREWS - Tumblin' Down
2. GORILLAZ - On Melancholy Hill
3. KATY PERRY F/ SNOOP DOGG - California Gurls
4. KYLIE MINOGUE - All The Lovers
5. DAVID GUETTA AND CHRIS WILLIS F/ FERGIE AND LMFAO - Gettin' Over You
6. SEAN KINGSTON AND JUSTIN BIEBER - Eenie Meenie
7. JESSIE JAMES - Boys In The Summer
8. N.E.R.D. F/ NELLY FURTADO - Hot-n-Fun
9. DIDDY DIRTY MONEY F/ T.I. AND RICK ROSS - Hello Good Morning
10. MANN F/ JASON DERULO - Text
11. TAIO CRUZ F/ LUDACRIS - Break Your Heart
12. KESHA - Your Love Is My Drug
13. LA ROUX - Bulletproof
14. TIMBALAND F/ KATY PERRY - If We Ever Meet Again
15. NATHAN F/ FLO RIDA - Caught Me Slippin
16. JACK JOHNSON - You And Your Heart
17. SARA BAREILLES - King Of Anything
18. MAROON 5 - Misery
19. USHER F/ WILL.I.AM. - OMG
20. LADY GAGA - Alejandro
21. EMINEM - Not Afraid
22. ROBYN - Dancing On My Own
23. FAR EAST MOVEMENT F/ THE CATARACS AND DEV - Like A G6
24. TRAIN - If It's Love
25. KELLY ROWLAND F/ DAVID GUETTA - Commander
26. KNAAN F/ WILL.I.AM AND DAVID GUETTA - Wavin' Flag
27. JARON AND THE LONG ROAD TO LOVE - Pray For You
28. SHONTELLE - Impossible
29. HANSON - Thinkin About Something
30. MACY GRAY - Beauty In The World
31. CHRISTINA AGUILERA - Not Myself Tonight
32. GYPTIAN - Hold Yuh
33. DRAKE - Over
34. DJ KHALED F/ T-PAIN, LUDACRIS, RICK ROSS AND SNOOP DOGG - All I Do Is Win
35. MILEY CYRUS - Can't Be Tamed
36. MUSE - Neutron Star Collision From From THE TWILIGHT SAGA: Eclipse Original Soundtrack
37. LIFEHOUSE - Halfway Gone
38. ADAM LAMBERT - If I Had You
39. TAMAR KAPRELIAN - New Day
40. JOHN MAYER - Heartbreak Warfare
41. COLBIE CAILLAT - I Never Told You

General
Complete name: C:\загрузка\Rock_America_Hits_August_[tfile.ru]\VIDEO_TS\VTS_01_2.VOB
Format: MPEG-PS
File size: 1 024 MiB
Duration: 27mn 7s
Overall bit rate: 5 279 Kbps

Video
ID: 224 (0xE0)
Format: MPEG Video
Format version: Version 2
Format profile: Main@Main
Format settings, Matrix: Default
Duration: 27mn 7s
Bit rate mode: Variable
Bit rate: 4 877 Kbps
Nominal bit rate: 7 500 Kbps
Width: 720 pixels
Height: 480 pixels
Display aspect ratio: 4/3
Frame rate: 29.970 fps
Standard: NTSC
Colorimetry: 4:2:0
Scan type: Interlaced
Scan order: Bottom Field First
Bits/(Pixel*Frame): 0.471
Stream size: 946 MiB (92%)

Audio
ID: 128 (0x80)
Format: AC-3
Format/Info: Audio Coding 3
Duration: 27mn 7s
Bit rate mode: Constant
Bit rate: 192 Kbps
Channel(s): 2 channels
Channel positions: L R
Sampling rate: 48.0 KHz
Video delay: -523ms
Stream size: 37.2 MiB (4%)

Menu
Format: DVD-Video















Поделиться:




реклама партнёра


Вернуться к началу
 Профиль Отправить личное сообщение  
 
   Похожие торренты   Автор   Торрент   Размер 
В этой теме нет новых непрочитанных сообщений. Donna Summer - The Video Hits Collection [Disco-rock, dance, 2016] WEBRip

salma3

100 | 20

1.01 ГБ

В этой теме нет новых непрочитанных сообщений. Сборник - Русский Рок Золотой [2014, Rock, Classic Rock, Soft Rock, Hard Rock, MP3]

Nickolas3435

457 | 26

935.39 МБ

В этой теме нет новых непрочитанных сообщений. Сборник - 101 No.1 Hits [Pop, Rock, 2017] MP3 / 320 kpbs

salma3

31 | 8

972.32 МБ

В этой теме нет новых непрочитанных сообщений. Kim Wilde - The Video Hits Collection [Pop-rock, 2016] WEBRip

salma3

14 | 1

917.09 МБ

В этой теме нет новых непрочитанных сообщений. Сборник - Top 100 Dance Hits Playlist [Dance, Club, 2017] MP3 / 320 kpbs

salma3

129 | 11

883.81 МБ

В этой теме нет новых непрочитанных сообщений. Dance! Dance! vol. 1 [2014, Dance, Eurodance, Techno, Pop, Клип, DVD9]

Nickolas3435

87 | 15

7.45 ГБ

В этой теме нет новых непрочитанных сообщений. Rockets - The Video Hits Collection [Electro-pop, space rock, ambient, 2016] WEBRip

salma3

100 | 15

1.02 ГБ


Начать новую тему Ответить на тему  [ 1 сообщение ] 




Для Мосгорсуда, Роскомнадзора и рекламодателей:: mosgorsud-torrent[собачка]yandex.ru