Торрент файл
скачать торрент магнет ссылка Добавлен: 08 янв 2012, 15:59
Размер: 5.47 ГБ
Сидеров: 0
Личеров: 5
Автор

СообщениеДобавлено: 08 янв 2012, 15:59 

Не в сети
Супермодератор
Аватара пользователя
Дата регистрации:
22 май 2010, 11:03
Возраст: 31
Спасибо: 7524 / 13
Сообщения: 49940
Rock America Hits August

Формат: DVD9, DVD Video, MPEG2, AC3
Жанр: Pop, Rap, Rock, R'n'B, Dance,Trance
Продолжительность: 02:29:39
Год выпуска: 2010

Видео: 720X480 (NTSC 4:3), 29.970fps, MPEG-2 Video, ~7 500Kbps
Аудио: Английский 48.0KHz, AC-3, 2 ch ,~192Kbps


Домашняя страница

1. JENNA ANDREWS - Tumblin' Down
2. GORILLAZ - On Melancholy Hill
3. KATY PERRY F/ SNOOP DOGG - California Gurls
4. KYLIE MINOGUE - All The Lovers
5. DAVID GUETTA AND CHRIS WILLIS F/ FERGIE AND LMFAO - Gettin' Over You
6. SEAN KINGSTON AND JUSTIN BIEBER - Eenie Meenie
7. JESSIE JAMES - Boys In The Summer
8. N.E.R.D. F/ NELLY FURTADO - Hot-n-Fun
9. DIDDY DIRTY MONEY F/ T.I. AND RICK ROSS - Hello Good Morning
10. MANN F/ JASON DERULO - Text
11. TAIO CRUZ F/ LUDACRIS - Break Your Heart
12. KESHA - Your Love Is My Drug
13. LA ROUX - Bulletproof
14. TIMBALAND F/ KATY PERRY - If We Ever Meet Again
15. NATHAN F/ FLO RIDA - Caught Me Slippin
16. JACK JOHNSON - You And Your Heart
17. SARA BAREILLES - King Of Anything
18. MAROON 5 - Misery
19. USHER F/ WILL.I.AM. - OMG
20. LADY GAGA - Alejandro
21. EMINEM - Not Afraid
22. ROBYN - Dancing On My Own
23. FAR EAST MOVEMENT F/ THE CATARACS AND DEV - Like A G6
24. TRAIN - If It's Love
25. KELLY ROWLAND F/ DAVID GUETTA - Commander
26. KNAAN F/ WILL.I.AM AND DAVID GUETTA - Wavin' Flag
27. JARON AND THE LONG ROAD TO LOVE - Pray For You
28. SHONTELLE - Impossible
29. HANSON - Thinkin About Something
30. MACY GRAY - Beauty In The World
31. CHRISTINA AGUILERA - Not Myself Tonight
32. GYPTIAN - Hold Yuh
33. DRAKE - Over
34. DJ KHALED F/ T-PAIN, LUDACRIS, RICK ROSS AND SNOOP DOGG - All I Do Is Win
35. MILEY CYRUS - Can't Be Tamed
36. MUSE - Neutron Star Collision From From THE TWILIGHT SAGA: Eclipse Original Soundtrack
37. LIFEHOUSE - Halfway Gone
38. ADAM LAMBERT - If I Had You
39. TAMAR KAPRELIAN - New Day
40. JOHN MAYER - Heartbreak Warfare
41. COLBIE CAILLAT - I Never Told You

General
Complete name: C:\загрузка\Rock_America_Hits_August_[tfile.ru]\VIDEO_TS\VTS_01_2.VOB
Format: MPEG-PS
File size: 1 024 MiB
Duration: 27mn 7s
Overall bit rate: 5 279 Kbps

Video
ID: 224 (0xE0)
Format: MPEG Video
Format version: Version 2
Format profile: Main@Main
Format settings, Matrix: Default
Duration: 27mn 7s
Bit rate mode: Variable
Bit rate: 4 877 Kbps
Nominal bit rate: 7 500 Kbps
Width: 720 pixels
Height: 480 pixels
Display aspect ratio: 4/3
Frame rate: 29.970 fps
Standard: NTSC
Colorimetry: 4:2:0
Scan type: Interlaced
Scan order: Bottom Field First
Bits/(Pixel*Frame): 0.471
Stream size: 946 MiB (92%)

Audio
ID: 128 (0x80)
Format: AC-3
Format/Info: Audio Coding 3
Duration: 27mn 7s
Bit rate mode: Constant
Bit rate: 192 Kbps
Channel(s): 2 channels
Channel positions: L R
Sampling rate: 48.0 KHz
Video delay: -523ms
Stream size: 37.2 MiB (4%)

Menu
Format: DVD-Video















Поделиться:




реклама партнёра


Вернуться к началу
 Профиль Отправить личное сообщение  
 
   Похожие торренты   Автор   Торрент   Размер 
В этой теме нет новых непрочитанных сообщений. Ghosts Of August - Ghosts Of August [2011, Alternative Rock, Modern Rock, Hard Rock, MP3]

PriZraK

0 | 1

112.57 МБ

В этой теме нет новых непрочитанных сообщений. VA - 100 Hits: Band On The Run. Pop Rock Of The 60's & 70's [2004, Pop, Rock, Classic Rock, Hard Rock, Blues, Rock Ballads, MP3]

PriZraK

15 | 5

652.15 МБ

В этой теме нет новых непрочитанных сообщений. VA - 100 Hits: Rock Show. Classic Rock of the 60s & 70s [2004, Rock, Blues, Ballads, Rock'N'Roll, MP3]

PriZraK

25 | 2

496.06 МБ

В этой теме нет новых непрочитанных сообщений. VA - 101 Hits Rock Legends (Box Set 4CD) [2009, Rock, Hard Rock, Blues Rock, MP3]

PriZraK

0 | 1

763.97 МБ

В этой теме нет новых непрочитанных сообщений. Various Artists - Grand 80s [vol 11+] [2012, Pop, Rock, RnB, Dance, Rap Hits, MP3]

Nickolas3435

21 | 4

1.85 ГБ

В этой теме нет новых непрочитанных сообщений. VA - Pink Floyd Greatest Hits Covered [2010, Rock, Psychedelic Rock, Electronic, MP3]

PriZraK

14 | 5

350.03 МБ

В этой теме нет новых непрочитанных сообщений. Robert Plant - Greatest Hits (2CD) [2011, Hard Rock, Blues Rock, Folk Rock, MP3]

PriZraK

2 | 3

383.06 МБ


Начать новую тему Ответить на тему  [ 1 сообщение ] 




Для Мосгорсуда, Роскомнадзора и рекламодателей:: mosgorsud-torrent[собачка]yandex.ru