Торрент файл
скачать торрент магнет ссылка Добавлен: 08 янв 2012, 15:39
Размер: 43.91 МБ
Сидеров: 10
Личеров: 2
Автор

СообщениеДобавлено: 08 янв 2012, 15:39 

Не в сети
Супермодератор
Аватара пользователя
Дата регистрации:
22 май 2010, 11:03
Возраст: 31
Спасибо: 7509 / 13
Сообщения: 49940
Shakira - Loca

Формат: Web-DL, M4V, AVC 3.0 (H.264), AC3
Песня: Loca
Жанр: Latin, Dance-pop
Продолжительность: 0:03:24
Год выпуска: 2010
Видео: 640x352 (1.82:1), 25 fps, XviD MPEG-4 ~1533 kbps avg, 0.272 bit/pixel
Аудио: 44.1 kHz, MPEG Layer 3, 2 ch, ~256.00 kbps avg
Доп. информация: Оценки клипа:
Walter Frazier из Billboard: "Шакира танцует в фонтане, привлекая прохожих (она Шакира, в конце концов). Неудивительно, что некоторые присоединяются к ней в сумасшествие и прыгают в фонтан. Песня заканчивается с Шакирой в окружении своих поклонников, танцующих в открытой воде. Шакира действительно сумасшедшая, но нам это нравится".

James Montgomery с MTV дал положительное мнение о видео: "Это явно партизанская попытка, которая, как представляется, была сделана на бюджет, близкий к нулю (кроме сцены с исполнением песни, всё остальное, кажется, было снято на портативные камеры). Britneys, Beyoncés и Gagas, вероятно, никогда не сделают что-то вроде этого ... и все же, здесь это срабатывает, в основном потому что такие вещи будет делать только Шакира. "Loca" является редким видео, где не пытаются затмить песню, оно основано на песне. Вместо с этим, оно дополняет её. Это преднамеренное безумие в клипе "Loca", живая, раскованная энергия. Очень немногие исполнители могут показать такое, независимо от того, насколько велик бюджет. И, если подумать об этом, это довольно точный способ подведения итогов всей карьеры Шакиры. Это единение с людьми."

The Sun Daily: "Фоном для видео на сингл были съёмки с портативных камер, и Шакира решила отойти от традиционного производства большого клипа, изобразив живой, веселый день "Loca" ("Сумасшествия") на улицах с жителями Барселоны."






Format: MPEG-4
Codec ID: M4V
File size: 43.9 MiB
Duration: 3mn 24s
Overall bit rate: 1 798 Kbps
Movie name: Loca (feat. Dizzee Rascal)
Performer: Shakira
Genre: Latino
Encoded date: UTC 2010-10-13 07:00:00
Tagged date: UTC 2010-10-15 03:03:45
Writing library: Apple QuickTime
Cover: Yes
Comment: (Video - New Version)
stik: 6

Video
ID: 1
Format: AVC
Format/Info: Advanced Video Codec
Format profile: Baseline@L3.0
Format settings, CABAC: No
Format settings, ReFrames: 1 frame
Codec ID: avc1
Codec ID/Info: Advanced Video Coding
Duration: 3mn 24s
Bit rate mode: Variable
Bit rate: 1 533 Kbps
Width: 640 pixels
Height: 352 pixels
Display aspect ratio: 16/9
Frame rate mode: Constant
Frame rate: 25.000 fps
Resolution: 24 bits
Colorimetry: 4:2:0
Scan type: Progressive
Bits/(Pixel*Frame): 0.272
Stream size: 37.4 MiB (85%)
Encoded date: UTC 2010-10-15 03:03:41
Tagged date: UTC 2010-10-15 03:03:45

Audio
ID: 2
Format: AAC
Format/Info: Advanced Audio Codec
Format version: Version 4
Format profile: LC
Format settings, SBR: No
Codec ID: 40
Duration: 3mn 24s
Bit rate mode: Constant
Bit rate: 251 Kbps
Nominal bit rate: 256 Kbps
Channel(s): 2 channels
Channel positions: L R
Sampling rate: 44.1 KHz
Resolution: 16 bits
Stream size: 6.14 MiB (14%)
Encoded date: UTC 2010-10-15 03:03:41
Tagged date: UTC 2010-10-15 03:03:45

Menu
ID: 3
Format: TimeCode
Encoded_Date: UTC 2010-10-15 03:03:45
Tagged_Date: UTC 2010-10-15 03:03:45


Поделиться:




реклама партнёра


Вернуться к началу
 Профиль Отправить личное сообщение  
 
   Похожие торренты   Автор   Торрент   Размер 
В этой теме нет новых непрочитанных сообщений. Angelic Latin Asses / Ангельские Латинские Задницы (Devil's Film) [2014 г., Anal, Big Butt, Latin, BJ, Gonzo, Hardcore, All Sex, DVDRip, 396p]

friizze

14 | 15

1.6 ГБ

В этой теме нет новых непрочитанных сообщений. Сумасшедший пляж / La Playa Loca [комедия, 1989] DVDRip, Dvo

salma3

31 | 5

1.5 ГБ

В этой теме нет новых непрочитанных сообщений. Моя безумная жизнь / Mi vida loca [драма, криминал, 1993] DVDRip, Dvo

salma3

71 | 6

1.46 ГБ

В этой теме нет новых непрочитанных сообщений. House Of Shakira - HoS [2012, Melodic Hard Rock, MP3]

PriZraK

1 | 1

114.11 МБ

В этой теме нет новых непрочитанных сообщений. Латинские задницы 2 / Latin Asses 2 (2016) WEBRip

Dievas

46 | 19

1.72 ГБ

В этой теме нет новых непрочитанных сообщений. House Of Shakira - Pay To Play [2013, Melodic Hard Rock, MP3]

PriZraK

0 | 1

107.85 МБ

В этой теме нет новых непрочитанных сообщений. Латинский любовник / Latin Lover [драма, комедия, 2015] WEB-DLRip, Mvo

salma3

162 | 68

1.37 ГБ


Начать новую тему Ответить на тему  [ 1 сообщение ] 




Для Мосгорсуда, Роскомнадзора и рекламодателей:: mosgorsud-torrent[собачка]yandex.ru