Торрент файл
скачать торрент магнет ссылка Добавлен: 08 янв 2012, 14:31
Размер: 1.3 ГБ
Сидеров: 19
Личеров: 5
Автор

СообщениеДобавлено: 08 янв 2012, 14:31 

Не в сети
Зам. Админа
Аватара пользователя
Дата регистрации:
02 дек 2010, 12:39
Спасибо: 12458 / 214
Сообщения: 27968
Алексей Архиповский - Концерт в ЦДРИ

Формат: DVDRip, MP4, H.264 (AVC), AC3

Жанр: Folk, авторское исполнение (балалайка)

Продолжительность: 02:07:22

Год выпуска: 2009

Видео: 1024x576 (16:9), 25.00fps, MPEG4 Video (H264), ~ 1270 kbps, 0.086 bit*pixel

Аудио: 48000Hz stereo, Dolby AC3, 2 ch, 192 kbps

Доп. информация:
Балалаечник Алексей Архиповский – один из тех немногих музыкантов, которым удается сочетать работу в традиционном «народном» русле с разработкой собственного пути, часто куда более яркого и самобытного. Блестящие успехи именно вне традиционно-фольклорного поля, однако, не становятся для музыканта причиной отказа от традиции. Алексей, которого по праву можно назвать лучшим балалаечником страны (если даже не планеты), уделяет одинаковое внимание как работе в ведущих народных ансамблях России, так и собственным проектам...

Жанры: folk, experimental, world, russian, World Music, Russian Folk, balalaika, balalayka, seen live

Релиз группы:


MediaInfo: General
Complete name: C:\Закачки\Концерты\Arhipovskiy_[tfile.ru].mp4
Format: Matroska
File size: 1.30 GiB
Duration: 2h 7mn
Overall bit rate: 1 465 Kbps
Encoded date: UTC 2010-12-23 08:12:50
Writing application: mkvmerge v2.4.0 ('Fumbling Towards Ecstasy') built on Oct 11 2008 20:13:15
Writing library: libebml v0.7.7 + libmatroska v0.8.1

Video
ID: 1
Format: AVC
Format/Info: Advanced Video Codec
Format profile: High@L4.1
Format settings, CABAC: Yes
Format settings, ReFrames: 10 frames
Muxing mode: Container profile=Unknown@4.1
Codec ID: V_MPEG4/ISO/AVC
Duration: 2h 7mn
Bit rate: 1 270 Kbps
Width: 1 024 pixels
Height: 576 pixels
Display aspect ratio: 16:9
Frame rate: 25.000 fps
Color space: YUV
Chroma subsampling: 4:2:0
Bit depth: 8 bits
Scan type: Progressive
Bits/(Pixel*Frame): 0.086
Stream size: 1.11 GiB (85%)
Writing library: x264 core 65 r999kMod cc51047
Encoding settings: cabac=1 / ref=10 / deblock=1:-3:-3 / analyse=0x3:0x133 / me=umh / subme=9 / psy_rd=1.0:0.0 / mixed_ref=1 / me_range=32 / chroma_me=1 / trellis=2 / 8x8dct=1 / cqm=0 / deadzone=21,11 / chroma_qp_offset=-2 / threads=4 / thread_queue=4 / nr=0 / decimate=1 / mbaff=0 / bframes=6 / b_pyramid=1 / b_adapt=1 / b_bias=0 / direct=3 / wpredb=1 / keyint=250 / keyint_min=25 / scenecut=40(pre) / rc=2pass / bitrate=1270 / ratetol=1.0 / qcomp=0.60 / qpmin=16 / qpmax=51 / qpstep=4 / cplxblur=20.0 / qblur=0.5 / ip_ratio=1.40 / pb_ratio=1.30 / aq=1:1.00
Language: Russian

Audio
ID: 2
Format: AC-3
Format/Info: Audio Coding 3
Mode extension: CM (complete main)
Codec ID: A_AC3
Duration: 2h 7mn
Bit rate mode: Constant
Bit rate: 192 Kbps
Channel(s): 2 channels
Channel positions: Front: L R
Sampling rate: 48.0 KHz
Stream size: 175 MiB (13%)
Language: Russian
Концерт 23 января 2009 года в ЦДРИ

Отделение 1
• Интро + Барыня
• Его звали Микаэл
• Ваня
• Шарманка

Отделение 2
• Прелесть
• Человече
• Дождик
• Дорога домой
• Восточная
• Конец

«Духоловка»
• О жизни и о себе
(в беседе с Антоном Егоровым)

Бонусы
• Колыбельная («Свеча»)
Из проекта «Этносфера»
• Дорога домой
Клуб «Place» г. Санкт-Петербург







Поделиться:




реклама партнёра


Вернуться к началу
 Профиль  
 
   Похожие торренты   Автор   Торрент   Размер 
В этой теме нет новых непрочитанных сообщений. Исполнение приказа / Chain of Command [Боевик,Триллер, 1994] DVDRip, Mvo

salma3

0 | 2

1.37 ГБ

В этой теме нет новых непрочитанных сообщений. Blackmores Night - Концерт в Москве [2011, Folk, MP3]

PriZraK

2 | 3

247.41 МБ

В этой теме нет новых непрочитанных сообщений. Почти Непьющий Оркестр - Песни Нищего Человека [2009, Folk-punk, Folk-rock, MP3]

PriZraK

1 | 1

79.94 МБ

В этой теме нет новых непрочитанных сообщений. VA - Стальные нервы (Folk Metal) [2012, Folk Metal, Black Folk Metal, Dark Folk Metal, Melodic Death Metal, MP3]

PriZraK

2 | 2

699.63 МБ

В этой теме нет новых непрочитанных сообщений. Концерт Ирины Аллегровой в Олимпийском (Россия) [Концерт, 2015] HDTV 1080i

Dracon

335 | 52

6.13 ГБ

В этой теме нет новых непрочитанных сообщений. Юбилейный концерт Евгения Крылатова [03.01] (Россия) [Концерт, 2015] HDTV 1080i

Dracon

18 | 3

5.49 ГБ

В этой теме нет новых непрочитанных сообщений. Праздничный концерт к Дню сотрудника органов внутренних дел (Россия) [Концерт, 2015] HDTVRip

Dracon

340 | 83

1.85 ГБ


Начать новую тему Ответить на тему  [ 1 сообщение ] 




Для Мосгорсуда, Роскомнадзора и рекламодателей:: mosgorsud-torrent[собачка]yandex.ru