Торрент файл
скачать торрент магнет ссылка Добавлен: 08 янв 2012, 14:29
Размер: 11.33 ГБ
Сидеров: 4
Личеров: 4
Автор

СообщениеДобавлено: 08 янв 2012, 14:29 

Не в сети
Зам. Админа
Аватара пользователя
Дата регистрации:
02 дек 2010, 12:39
Спасибо: 12461 / 214
Сообщения: 27968
Mylene Farmer - Avant Que L'ombre… A Bercy


Формат: DVD9+DVD5, DVD Video, MPEG2, AC3/DTS
Песня: Avant Que L'ombre… A Bercy
Жанр: Pop, rock, electronica
Продолжительность: 03:44:06
Год выпуска: 2006
Видео: 720x576(PAL 2.35:1), 25,000fps,MPEG VIDEO-2, 5816 Kbps, 0.561 bit/pixel
Аудио: 48kHz, AC3 2ch, ~192 Kbps
Аудио: 48kHz, AC3 6ch, ~448 kbps
Аудио: 48kHz, DTS 6ch, ~755 kbps
Дополнительная информация: 4 декабря 2006 года увидел свет концертный DVD Милен Фармер "Avant que l'ombre... Live a Bercy 2006". Кроме диска с потрясающим шоу француженки, имеется второй — с бонусными видео. Некоторые из этих бонусов и предлагаем вашему вниманию: L'ombre des autres (Making of), Haute couture (Clip) и La Cassar Mobile.


DVD1

01. Introduction
02. Peut-etre toi
03. XXL
04. Dans les rues de Londres
05. California
06. Porno-Graphique
07. Sans contrefacon
08. Q.I
09. C'est une belle journee
10. Ange, parle-moi
11. Redonne-moi
12. Rever
13. L'autre
14. Desenchantee
15. Nobody knows
16. Je t'aime melancolie
17. L'amour n'est rien
18. Deshabillez-moi
19. Les mots
20. Fuck them all
21. Avant que l'ombre...
22. Generique De Fin

DVD2

1. L'ombre des auteres - Making of
2. Scene by scene views - Entretiens
3. Works by escalle - Portrait
4. Haute couture - Entretien & Clip
5. Live alternative - Ange, parle-moi & Avant que l'ombre
General
Complete name: H:\Mylene.Farmer-Avant.que.l.ombre.a.Bercy.2006.DVD-9.DVD-5\DVD-1\VIDEO_TS\VTS_01_1.VOB
Format: MPEG-PS
File size: 1 024 MiB
Duration: 19mn 27s
Overall bit rate: 7 356 Kbps

Video
ID: 224 (0xE0)
Format: MPEG Video
Format version: Version 2
Format profile: Main@Main
Format settings, BVOP: Yes
Format settings, Matrix: Default
Format settings, GOP: M=3, N=12
Duration: 19mn 27s
Bit rate mode: Variable
Bit rate: 5 816 Kbps
Nominal bit rate: 8 100 Kbps
Width: 720 pixels
Height: 576 pixels
Display aspect ratio: 16:9
Frame rate: 25.000 fps
Standard: PAL
Color space: YUV
Chroma subsampling: 4:2:0
Bit depth: 8 bits
Scan type: Interlaced
Scan order: Top Field First
Bits/(Pixel*Frame): 0.561
Stream size: 810 MiB (79%)

Audio #1
ID: 128 (0x80)
Format: AC-3
Format/Info: Audio Coding 3
Mode extension: CM (complete main)
Duration: 19mn 27s
Bit rate mode: Constant
Bit rate: 192 Kbps
Channel(s): 2 channels
Channel positions: Front: L R
Sampling rate: 48.0 KHz
Stream size: 26.7 MiB (3%)

Audio #2
ID: 129 (0x81)
Format: AC-3
Format/Info: Audio Coding 3
Mode extension: CM (complete main)
Duration: 19mn 27s
Bit rate mode: Constant
Bit rate: 448 Kbps
Channel(s): 6 channels
Channel positions: Front: L C R, Side: L R, LFE
Sampling rate: 48.0 KHz
Stream size: 62.3 MiB (6%)

Audio #3
ID: 138 (0x8A)
Format: DTS
Format/Info: Digital Theater Systems
Duration: 19mn 27s
Bit rate mode: Constant
Bit rate: 755 Kbps
Channel(s): 6 channels
Channel positions: Front: L C R, Side: L R, LFE
Sampling rate: 48.0 KHz
Bit depth: 24 bits
Stream size: 105 MiB (10%)







Поделиться:




реклама партнёра


Вернуться к началу
 Профиль  
 
   Похожие торренты   Автор   Торрент   Размер 
В этой теме нет новых непрочитанных сообщений. Darvulia - L'Ombre Malicieuse [2002, Black Metal, MP3]

PriZraK

0 | 1

81.59 МБ

В этой теме нет новых непрочитанных сообщений. Sainte Ombre - Cornelia [2013, Symphonic Heavy Metal, MP3]

PriZraK

0 | 1

139.98 МБ

В этой теме нет новых непрочитанных сообщений. Призрак Мон-Сен-Мишель / L'ombre du Mont-Saint-Michel (Клаус Бидерманн / Klaus Biedermann) [2010г., Франция, триллер, драма, детектив, SATRip] Dub

Alfredovich

22 | 2

1.27 ГБ

В этой теме нет новых непрочитанных сообщений. Professional Farmer 2017 [Simulator, 2016] [ RePack]

Sykre

0 | 0

1.2 ГБ

В этой теме нет новых непрочитанных сообщений. The Tiger Lillies - Either Or [2013, Dark Cabaret, Avant-Garde, MP3]

PriZraK

0 | 1

162.11 МБ

В этой теме нет новых непрочитанных сообщений. Elupia - Wilderness [2013, Symphonic Metal, Avant-Garde, MP3]

PriZraK

0 | 1

100.97 МБ

В этой теме нет новых непрочитанных сообщений. Barbiturate - Deep [2014, Avant-Garde Death Metal, MP3]

PriZraK

0 | 1

109.86 МБ


Начать новую тему Ответить на тему  [ 1 сообщение ] 




Для Мосгорсуда, Роскомнадзора и рекламодателей:: mosgorsud-torrent[собачка]yandex.ru