Торрент файл
скачать торрент магнет ссылка Добавлен: 08 янв 2012, 14:15
Размер: 4.3 ГБ
Сидеров: 4
Личеров: 8
Автор

СообщениеДобавлено: 08 янв 2012, 14:15 

Не в сети
Зам. Админа
Аватара пользователя
Дата регистрации:
02 дек 2010, 12:39
Спасибо: 12461 / 214
Сообщения: 27968
SlipKnot - Rock Am Ring

Формат: HDTVRip, MP4, AVC, AC3
Песня: Rock Am Ring
Жанр: Nu Metal
Продолжительность: 01:26:45
Год выпуска: 2009
Видео: 1280x720 (16:9),25.0 fps,AVC,~ 6831 Kbps avg, 0.296 bit/pixel
Аудио: 48.0 KHz,AC3, Constant , 2 ch,~ 256 Kbps,
Доп. информация: Это рип с канала MTVHD -наслаждайтесь!!!


01 Intro (742617000027)
02 (SIC)
03 Eyeless
04 Wait And Bleed
05 Get This
06 Before I Forget
07 Sulfur
08 The Blister Exists
09 Dead Memories
10 Left Behind
11 Disasterpiece
12 Vermilion
13 Everything Ends
14 Psychosocial
15 Duality
16 People = Shit
17 Surfacing
18 Spit It Out
19 Outro (Til' We Die)



General
Complete name : C:\Torrents\Slipknot\SlipKnoT - Rock Am Ring 2009 HDTVRip.mkv
Format : Matroska
File size : 4.30 GiB
Duration : 1h 26mn
Overall bit rate : 7 089 Kbps
Encoded date : UTC 2010-12-18 14:22:00
Writing application : mkvmerge v3.3.0 ('Language') built on Mar 24 2010 14:59:24
Writing library : libebml v0.8.0 + libmatroska v0.9.0
Video
ID : 1
Format : AVC
Format/Info : Advanced Video Codec
Format profile : High@L4.1
Format settings, CABAC : Yes
Format settings, ReFrames : 5 frames
Muxing mode : Container profile=Unknown@4.1
Codec ID : V_MPEG4/ISO/AVC
Duration : 1h 26mn
Bit rate : 6 831 Kbps
Width : 1 280 pixels
Height : 720 pixels
Display aspect ratio : 16:9
Frame rate : 25.000 fps
Color space : YUV
Chroma subsampling : 4:2:0
Bit depth : 8 bits
Scan type : Progressive
Bits/(Pixel*Frame) : 0.296
Stream size : 4.05 GiB (94%)
Writing library : x264 core 68 r1184 88b35c2
Encoding settings : cabac=1 / ref=5 / deblock=1:0:0 / analyse=0x3:0x113 / me=umh / subme=9 / psy_rd=1.0:0.0 / mixed_ref=1 / me_range=24 / chroma_me=1 / trellis=2 / 8x8dct=1 / cqm=0 / deadzone=21,11 / chroma_qp_offset=-2 / threads=9 / nr=0 / decimate=1 / mbaff=0 / bframes=3 / b_pyramid=0 / b_adapt=1 / b_bias=0 / direct=1 / wpredb=1 / keyint=250 / keyint_min=25 / scenecut=40 / rc=2pass / bitrate=6831 / ratetol=1.0 / qcomp=0.60 / qpmin=10 / qpmax=51 / qpstep=4 / cplxblur=20.0 / qblur=0.5 / ip_ratio=1.40 / pb_ratio=1.30 / aq=1:1.00
Language : English
Audio
ID : 2
Format : AC-3
Format/Info : Audio Coding 3
Mode extension : CM (complete main)
Codec ID : A_AC3
Duration : 1h 26mn
Bit rate mode : Constant
Bit rate : 256 Kbps
Channel(s) : 2 channels
Channel positions : Front: L R
Sampling rate : 48.0 KHz
Bit depth : 16 bits
Stream size : 159 MiB (4%)


Поделиться:




реклама партнёра


Вернуться к началу
 Профиль  
 
   Похожие торренты   Автор   Торрент   Размер 
В этой теме нет новых непрочитанных сообщений. My Indole Ring - My Indole Ring [1966 - 1969, Psychedelic Rock, MP3]

PriZraK

0 | 1

157.56 МБ

В этой теме нет новых непрочитанных сообщений. Slipknot - The Devil in I (Single) [24.08.2014, Nu Metal, MP3]

PriZraK

5 | 3

8.23 МБ

В этой теме нет новых непрочитанных сообщений. Slipknot - The Negative One (Single) [01.08.2014, Nu Metal, MP3]

PriZraK

5 | 2

5.02 МБ

В этой теме нет новых непрочитанных сообщений. Slipknot - .5: The Gray Chapter (Deluxe Edition) [2014, Nu Metal, MP3]

PriZraK

89 | 4

194.25 МБ

В этой теме нет новых непрочитанных сообщений. VA - Metal Attack [2012, Alternative Metal, Modern Rock, Punk Rock, Thrash Metal, Nu-Metal, Industrial Metal, Power Metal, MP3]

PriZraK

3 | 2

440.67 МБ

В этой теме нет новых непрочитанных сообщений. White Skull - The Ring Of The Ancients [2006, Heavy Metal, MP3]

PriZraK

0 | 1

131.52 МБ

В этой теме нет новых непрочитанных сообщений. Ring Of Fire - The Oracle [2001, Neoclassic,Power Metal, MP3]

PriZraK

0 | 1

140.72 МБ


Начать новую тему Ответить на тему  [ 1 сообщение ] 




Для Мосгорсуда, Роскомнадзора и рекламодателей:: mosgorsud-torrent[собачка]yandex.ru