Торрент файл
скачать торрент магнет ссылка Добавлен: 08 янв 2012, 14:05
Размер: 2.39 ГБ
Сидеров: 2
Личеров: 4
Автор

СообщениеДобавлено: 08 янв 2012, 14:05 

Не в сети
Зам. Админа
Аватара пользователя
Дата регистрации:
02 дек 2010, 12:39
Спасибо: 12623 / 214
Сообщения: 28012
Rihanna - Rock in Rio

Формат: DVD5, DVD Video, MPEG2, MPEG Audio
Название: Rock in Rio (05.06.2010)
Жанр: Rock, R'n'B
Продолжительность: 01:20:04
Год выпуска: 2011

Видео: 720x576 (16:9), 25 fps, MPEG-2, ~3 966 kbps avg, 0.383 bit/pixel
Аудио: 48 kHz, MPEG Layer 2, 2 ch, 224.00 kbps avg

Доп. информация: 05.06.2010 Rihanna выступила на крупном фестивале Rock in Rio в Мадриде (Испания). Съемки производились телекомпанией Television Espanola (TVE).
P.S. Материал взят с SAT-Rip.

Треклист
01 - Mad House & Hard
02 - Shut Up And Drive
03 - Fire Bomb
04 - Disturbia
05 - Rockstar 101
06 - Rude Boy
07 - Hate That I Love You
08 - Rehab
09 - Unfaithful & Stupid in Love
10 - Te Amo
11 - Dance Medley
12 - Let Me & SOS
13 - Take a Bow
14 - Wait Your Turn, Live Your Life & Run This Town
15 - Umbrella


General
Формат: MPEG-PS
Общий поток: 4 275 Kbps

Video
Идентификатор: 224 (0xE0)
Формат: MPEG Video
Версия формата: Version 2
Профайл формата: Main@Main
Параметры BVOP формата: Yes
Параметры матрицы формата: Default
Format_Settings_GOP: M=3, N=15
Вид битрейта: Variable
Битрейт: 3 966 Kbps
Номинальный битрейт: 8 000 Kbps
Ширина: 720 pixels
Высота: 576 pixels
Соотношение кадра: 16:9
Частота кадров: 25.000 fps
Стандарт вещания: PAL
ColorSpace: YUV
ChromaSubsampling: 4:2:0
BitDepth/String: 8 bits
Тип развёртки: Progressive
Бит/(Пиксели*Кадры): 0.383
Размер потока: 950 MiB (93%)

Audio
Идентификатор: 192 (0xC0)
Формат: MPEG Audio
Версия формата: Version 1
Профайл формата: Layer 2
Вид битрейта: Constant
Битрейт: 224 Kbps
Канал(ы): 2 channels
Частота: 48.0 KHz
Размер потока: 53.6 MiB (5%)












Мои раздачи


Если Вы Скачали, не забывайте сказать спасибо и поддержите раздачу
Поделиться:




реклама партнёра


Вернуться к началу
 Профиль  
 
   Похожие торренты   Автор   Торрент   Размер 
В этой теме нет новых непрочитанных сообщений. Сборник - Русский Рок Золотой [2014, Rock, Classic Rock, Soft Rock, Hard Rock, MP3]

Nickolas3435

457 | 26

935.39 МБ

В этой теме нет новых непрочитанных сообщений. Kid Rock - First Kiss [Deluxe Edition] (Rock, Country, Southern Rock. 2015) MP3 320 kbps

Aleksandr.ru

26 | 4

114.38 МБ

В этой теме нет новых непрочитанных сообщений. Сборник - The Original Rock Meets Classic [2 CD] [2014, Rock, Hard Rock, FLAC]

Nickolas3435

185 | 11

1.05 ГБ

В этой теме нет новых непрочитанных сообщений. Mark Knopfler - Tracker (Rock, Blues Rock, Folk Rock. 2015) MP3

Aleksandr.ru

152 | 5

139.55 МБ

В этой теме нет новых непрочитанных сообщений. Чичерина (Юлия Чичерина) - Дискография [2000 - 2012, Rock , Alternative Rock , Pop Rock, MP3]

salma3

1 | 2

3.05 ГБ

В этой теме нет новых непрочитанных сообщений. Chris Norman - Crossover (2015. Pop-Rock, Soft-Rock ) MP3 320 kbps

Aleksandr.ru

431 | 13

115.75 МБ

В этой теме нет новых непрочитанных сообщений. VA - Dark Side of the 80s [2015, Alternative Rock, New Wave, Indie Rock, MP3]

salma3

2 | 0

361.1 МБ


Начать новую тему Ответить на тему  [ 1 сообщение ] 




Для Мосгорсуда, Роскомнадзора и рекламодателей:: mosgorsud-torrent[собачка]yandex.ru