Торрент файл
скачать торрент магнет ссылка Добавлен: 08 янв 2012, 14:05
Размер: 2.39 ГБ
Сидеров: 2
Личеров: 4
Автор

СообщениеДобавлено: 08 янв 2012, 14:05 

Не в сети
Зам. Админа
Аватара пользователя
Дата регистрации:
02 дек 2010, 12:39
Спасибо: 12461 / 214
Сообщения: 27968
Rihanna - Rock in Rio

Формат: DVD5, DVD Video, MPEG2, MPEG Audio
Название: Rock in Rio (05.06.2010)
Жанр: Rock, R'n'B
Продолжительность: 01:20:04
Год выпуска: 2011

Видео: 720x576 (16:9), 25 fps, MPEG-2, ~3 966 kbps avg, 0.383 bit/pixel
Аудио: 48 kHz, MPEG Layer 2, 2 ch, 224.00 kbps avg

Доп. информация: 05.06.2010 Rihanna выступила на крупном фестивале Rock in Rio в Мадриде (Испания). Съемки производились телекомпанией Television Espanola (TVE).
P.S. Материал взят с SAT-Rip.

Треклист
01 - Mad House & Hard
02 - Shut Up And Drive
03 - Fire Bomb
04 - Disturbia
05 - Rockstar 101
06 - Rude Boy
07 - Hate That I Love You
08 - Rehab
09 - Unfaithful & Stupid in Love
10 - Te Amo
11 - Dance Medley
12 - Let Me & SOS
13 - Take a Bow
14 - Wait Your Turn, Live Your Life & Run This Town
15 - Umbrella


General
Формат: MPEG-PS
Общий поток: 4 275 Kbps

Video
Идентификатор: 224 (0xE0)
Формат: MPEG Video
Версия формата: Version 2
Профайл формата: Main@Main
Параметры BVOP формата: Yes
Параметры матрицы формата: Default
Format_Settings_GOP: M=3, N=15
Вид битрейта: Variable
Битрейт: 3 966 Kbps
Номинальный битрейт: 8 000 Kbps
Ширина: 720 pixels
Высота: 576 pixels
Соотношение кадра: 16:9
Частота кадров: 25.000 fps
Стандарт вещания: PAL
ColorSpace: YUV
ChromaSubsampling: 4:2:0
BitDepth/String: 8 bits
Тип развёртки: Progressive
Бит/(Пиксели*Кадры): 0.383
Размер потока: 950 MiB (93%)

Audio
Идентификатор: 192 (0xC0)
Формат: MPEG Audio
Версия формата: Version 1
Профайл формата: Layer 2
Вид битрейта: Constant
Битрейт: 224 Kbps
Канал(ы): 2 channels
Частота: 48.0 KHz
Размер потока: 53.6 MiB (5%)












Мои раздачи


Если Вы Скачали, не забывайте сказать спасибо и поддержите раздачу
Поделиться:




реклама партнёра


Вернуться к началу
 Профиль  
 
   Похожие торренты   Автор   Торрент   Размер 
В этой теме нет новых непрочитанных сообщений. ZZ Top - The Very Baddest (2СD) [2014, Blues Rock , Boogie Rock , Southern Rock , Hard Rock , Rock 'n' Roll , Classic Rock, MP3]

PriZraK

58 | 9

360.3 МБ

В этой теме нет новых непрочитанных сообщений. The Dead Weather - Sea of Cowards [2010, Alternative Rock, Garage Rock, Blues Rock, Indie rock, MP3]

PriZraK

1 | 2

68.55 МБ

В этой теме нет новых непрочитанных сообщений. VA - Rock Romantic [2012, Hard Rock, Heavy Metal, Alternative Rock, Modern Rock, Blues Rock, MP3]

PriZraK

5 | 3

844.31 МБ

В этой теме нет новых непрочитанных сообщений. VA - 100 Hits: Band On The Run. Pop Rock Of The 60's & 70's [2004, Pop, Rock, Classic Rock, Hard Rock, Blues, Rock Ballads, MP3]

PriZraK

15 | 5

652.15 МБ

В этой теме нет новых непрочитанных сообщений. VA-Essential The Power of Rock [2009, Rock, Classic Rock, Hard Rock, Progressive Rock, MP3]

PriZraK

0 | 1

535.92 МБ

В этой теме нет новых непрочитанных сообщений. VA - Diggin' Down Argentina - Nuggets From The Rioplatense Scene 1969-75 [2010, Garage Rock, Acid Rock, Psychedelic Rock, MP3]

PriZraK

0 | 1

104.5 МБ

В этой теме нет новых непрочитанных сообщений. Ape Machine - This House Has Been Condemned [2010,Psychedelic Rock,Stoner Rock,Blues Rock,MP3]

PriZraK

0 | 1

122.67 МБ


Начать новую тему Ответить на тему  [ 1 сообщение ] 




Для Мосгорсуда, Роскомнадзора и рекламодателей:: mosgorsud-torrent[собачка]yandex.ru