Торрент файл
скачать торрент магнет ссылка Добавлен: 08 янв 2012, 13:44
Размер: 248.07 МБ
Сидеров: 1
Личеров: 5
Автор

СообщениеДобавлено: 08 янв 2012, 13:44 

Не в сети
Зам. Админа
Аватара пользователя
Дата регистрации:
02 дек 2010, 12:39
Спасибо: 12460 / 214
Сообщения: 27968
Within Temptation - Faster


Формат: WEBRip, MKV, AVC, AAC
Песня: Faster
Жанр: Gothic Rock
Продолжительность: 00:03:32+00:08:48
Год выпуска: 2011
Видео: 720 x 544 (2.349) 25 fps,AVC,~2399 kbps avg,0.245 bit/pixel
Аудио: 1 411.2 Kbps 2 channels, 44.1 kHz ,PCM,2ch,~ 1 411.2 kbps avg
Доп. информация:
ОЧЕНЬ ВАЖНО!!! В раздаче лежат 2 КЛИПА на одну и ту же песню!!! Различия не только по времени ( и немного в качестве)),а в том,что в длинном клипе сумасшедшая старуха рассказывает страшные истории дольше (наглядный пример на 4 скриншоте).
И для Вас выкладываю полный отчёт по медиа,т.к. различия есть в битрейте.



Faster - первый их 3-х клипов, которые будут содержать три короткометражных фильма. Сюжеты всех клипов определят концепцию 5-го студийного альбома группы - The Unforgiving (март, 2011). 1-ый фильм называется Mother Maiden. Ведущую роль берёт на себя пожилая старушка с чёрными глазами, она как бы представляет героев.
Более подробную инфо можно узнать на официальном сайте группы.

Format : MPEG-4
Format profile : Base Media
Codec ID : isom
File size : 65.8 MiB
Duration : 3mn 32s
Overall bit rate : 2 600 Kbps
Video
ID : 1
Format : AVC
Format/Info : Advanced Video Codec
Format profile : Baseline@L3.2
Format settings, CABAC : No
Format settings, ReFrames : 6 frames
Codec ID : avc1
Codec ID/Info : Advanced Video Coding
Duration : 3mn 31s
Bit rate mode : Variable
Bit rate : 2 391 Kbps
Width : 1 280 pixels
Height : 544 pixels
Display aspect ratio : 2.35:1
Original display aspect ratio : 2.35:1
Frame rate mode : Constant
Frame rate : 25.000 fps
Color space : YUV
Chroma subsampling : 4:2:0
Bit depth : 8 bits
Scan type : Progressive
Bits/(Pixel*Frame) : 0.137
Stream size : 60.3 MiB (92%)
Tagged date : UTC 2011-01-29 02:55:45
Audio
ID : 2
Format : AAC
Format/Info : Advanced Audio Codec
Format version : Version 4
Format profile : LC
Format settings, SBR : No
Codec ID : 40
Duration : 3mn 32s
Bit rate mode : Variable
Bit rate : 127 Kbps
Channel(s) : 2 channels
Channel positions : Front: L R
Sampling rate : 44.1 KHz
Stream size : 3.20 MiB (5%)
Language : English
Tagged date : UTC 2011-01-29 02:55:45




WITHIN TEMPTATION опубликовали первый из трех короткометражных видео, объясняющих концепцию нового альбома "The Unforgiving", распространением которого будет заниматься Sony Music в континентальной Европе и Roadrunner Records в США, Великобритании и Ирландии, Японии и Австралии. Каждый фильм будет основан на истории из комикса, а его персонажи воплощены актерами. Каждый фильм будет сопровождаться совместным выступлением группы и рассказывать историю жизни, любви, мести, ярости и сожаления.


Format : MPEG-4
Format profile : Base Media / Version 2
Codec ID : mp42
File size : 174 MiB
Duration : 8mn 48s
Overall bit rate : 2 766 Kbps
Encoded date : UTC 2011-01-30 13:31:42
Tagged date : UTC 2011-01-30 13:31:42
gsst : 0
gstd : 528840
gssd : BADC21242HH1296492452464992
gshh : v17.lscache2.c.rutracker.org
Video
ID : 1
Format : AVC
Format/Info : Advanced Video Codec
Format profile : High@L4.0
Format settings, CABAC : Yes
Format settings, ReFrames : 1 frame
Codec ID : avc1
Codec ID/Info : Advanced Video Coding
Duration : 8mn 48s
Bit rate mode : Variable
Bit rate : 2 633 Kbps
Maximum bit rate : 8 951 Kbps
Width : 1 920 pixels
Height : 1 080 pixels
Display aspect ratio : 16:9
Frame rate mode : Constant
Frame rate : 25.000 fps
Color space : YUV
Chroma subsampling : 4:2:0
Bit depth : 8 bits
Scan type : Progressive
Bits/(Pixel*Frame) : 0.051
Stream size : 166 MiB (95%)
Tagged date : UTC 2011-01-30 13:31:52
Audio
ID : 2
Format : AAC
Format/Info : Advanced Audio Codec
Format version : Version 4
Format profile : LC
Format settings, SBR : No
Codec ID : 40
Duration : 8mn 48s
Bit rate mode : Variable
Bit rate : 128 Kbps
Maximum bit rate : 176.4 Kbps
Channel(s) : 2 channels
Channel positions : Front: L R
Sampling rate : 44.1 KHz
Stream size : 8.07 MiB (5%)
Title : (C) 2007 Google Inc. v08.13.2007.
Encoded date : UTC 2011-01-30 13:31:48
Tagged date : UTC 2011-01-30 13:31:52







Поделиться:




реклама партнёра


Вернуться к началу
 Профиль  
 
   Похожие торренты   Автор   Торрент   Размер 
В этой теме нет новых непрочитанных сообщений. Within Temptation - The Unforgiving [2011, Symphonic,Gothic Metal, MP3]

PriZraK

8 | 2

123.9 МБ

В этой теме нет новых непрочитанных сообщений. Within Temptation - Collection (Malasia Edition) [2011, Gothic Metal, MP3]

PriZraK

11 | 4

187.18 МБ

В этой теме нет новых непрочитанных сообщений. Within Temptation - The Unforgiving (Special Edition) [2011, Symphonic Gothic Metal, MP3]

PriZraK

4 | 2

154.2 МБ

В этой теме нет новых непрочитанных сообщений. Within Temptation: Let Us Burn - Elements & Hydra Live In Concert [Symphonic Metal, Gothic Rock, Power Metal, 2014] BDRemux 1080i

Dracon

32 | 8

20.63 ГБ

В этой теме нет новых непрочитанных сообщений. Ken Hensley - Faster - Greatest Hits (3CD) [2011 - 2012, Rock,Hard Rock, MP3]

PriZraK

0 | 4

497.68 МБ

В этой теме нет новых непрочитанных сообщений. Within Temptation - Hydra (3 СD Deluxe Box Set) [2014, Symphonic Gothic Metal, MP3]

PriZraK

54 | 5

311.59 МБ

В этой теме нет новых непрочитанных сообщений. Within Temptation - The Rarest Songs [2009, Symphonic Gothic Metal, MP3]

PriZraK

3 | 1

159.37 МБ


Начать новую тему Ответить на тему  [ 1 сообщение ] 




Для Мосгорсуда, Роскомнадзора и рекламодателей:: mosgorsud-torrent[собачка]yandex.ru