Торрент файл
скачать торрент магнет ссылка Добавлен: 08 янв 2012, 13:38
Размер: 1.89 ГБ
Сидеров: 0
Личеров: 10
Автор

СообщениеДобавлено: 08 янв 2012, 13:38 

Не в сети
Зам. Админа
Аватара пользователя
Дата регистрации:
02 дек 2010, 12:39
Спасибо: 12623 / 214
Сообщения: 28012
Последние Танки В Париже - Live в клубе Космонавт


Формат: HDCamRip, WMV,Windows Media Video 8,Windows Media Audio V8
Песня: Live в клубе Космонавт
Жанр: Dark,Experimental,Dubstep Punk
Продолжительность: 01:26:15
Год выпуска: 2010
Видео: 1280 x 720(16:9),25 fps,Windows Media Video 8, ~2900 kbps avg, 0.126bit/pixel
Аудио: 44.1kHz,Windows Media Audio V8,2 ch, ~96.0 kbps avg
Доп. информация:
Live группы Последние Танки В Париже в клубе "Космонавт" 16 декабря 2010 года. Концерт в рамках тура в поддержку альбома "Порядок вещей".
Концерт состоит из двух частей: исполнения непосредственно самого альбома "Порядок вещей" и сэта боевиков из предыдущих альбомов.

Очень ВАЖНО!!! Звук получился на троечку,в DVD обещают исправить,а пока как есть.


1. Пролог
2. Никогда не говори Никогда
3. Стих "Я вижу..."
4. Пусть подыхают дети
5. Порядок вещей
6. Нет!
7. Разбитая любовь
8. Песня без правил
9. Что такое счастье
10. Новый интернационал
11. Край ночи
12. Хэппи энд
13. предисловие ко второй части
14. Я радуюсь (они ох..ли!)
15. Сиду Вишесу (кавер на песню гр. "Химера")
16. Камень, ножницы, бумага
17. Завтра
18. Утро всех рабочих дней
19. Зеркало
20. Поколение огня
21. Бесполезные песни
22. Два слова
23. Плачь над любовью
24. Зимний синдром (кавер на песню гр. "Химера")
25. Империя (Dub step/ D`n`B версия)


General
Complete name\PTWP\Порядок вещей_2010\Media conent\PTWP_Concert in Kosmonavt SpB 16_12_2010\Web_ver\PTVP_Live_Cosmonavt_16_12_2010.wmv
Format: Windows Media
File size: 1.88 GiB
Duration: 1h 26mn
Overall bit rate: 3 128 Kbps
Maximum Overall bit rate: 3 096 Kbps
Encoded date: UTC 1970-01-01 00:00:00.000
Video
ID: 2
Format: WMV2
Codec ID: WMV2
Codec ID/Info: Windows Media Video 8
Description of the codec: wmv2
Duration: 1h 26mn
Bit rate: 2 900 Kbps
Width: 1 280 pixels
Height: 720 pixels
Display aspect ratio: 16:9
Frame rate: 25.000 fps
Bit depth: 8 bits
Bits/(Pixel*Frame): 0.126
Stream size: 1.75 GiB (93%)
Audio
ID: 1
Format: WMA
Format version: Version 2
Codec ID: 161
Codec ID/Info: Windows Media Audio
Description of the codec: Windows Media Audio V8
Duration: 1h 26mn
Bit rate: 96.0 Kbps
Channel(s): 2 channels
Sampling rate: 44.1 KHz
Bit depth: 16 bits
Stream size: 59.2 MiB (3%)






Поделиться:




реклама партнёра


Вернуться к началу
 Профиль  
 
   Похожие торренты   Автор   Торрент   Размер 
В этой теме нет новых непрочитанных сообщений. VA - Осенний марафон № 201 (Популярные треки осени) [2015, Pop, Dance, Latino, Country, House, Dubstep, Soul, Punk, HDTVRip 1080p]

Hestin

121 | 16

3.17 ГБ

В этой теме нет новых непрочитанных сообщений. Космонавт. Профессия без пафоса (Лилия Самойлова) [2011, документальный, познавательный, космонавтика, SATRip]

salma3

1 | 1

320.75 МБ

В этой теме нет новых непрочитанных сообщений. Молодые в клубе свингеров [2014 г., Amateur, CamRip 480p]

friizze

3 | 3

229.46 МБ

В этой теме нет новых непрочитанных сообщений. Резня в стрип-клубе / Strip Club Massacre [ужасы, триллер, 2017] WEB-DLRip, Mvo

salma3

960 | 375

1.37 ГБ

В этой теме нет новых непрочитанных сообщений. [BurningAngel.com] Lily Lane, Tank - Cum On My Tattoo (2017-10-19) [2017 г., Threesome, Big Tits, Goth Girl, Punk Girl, Tattoo/Piercing, Ink Queens, Dark Hair, All sex, Anal sex, 540p]

salma3

38 | 13

475.75 МБ

В этой теме нет новых непрочитанных сообщений. Tanki X [10.11.17] [Action, Симулятор, Танки, MMO, 2016] [Лицензия]

fiouyrt

2 | 0

1.12 ГБ

В этой теме нет новых непрочитанных сообщений. [BurningAngel.com] Joanna Angel, Small Hands, Katrina Jade, Carmen Caliente - My Killer Girlfriend. Part 4 (2017-10-28) [2017 г., Group, Big Tits, Goth Girl, Punk Girl, Tattoo, Piercing, Ink Queens, Ass, Dark Hair, Horror, All sex, 1080p]

salma3

20 | 6

1.42 ГБ


Начать новую тему Ответить на тему  [ 1 сообщение ] 




Для Мосгорсуда, Роскомнадзора и рекламодателей:: mosgorsud-torrent[собачка]yandex.ru