Торрент файл
скачать торрент магнет ссылка Добавлен: 08 янв 2012, 13:38
Размер: 2.36 ГБ
Сидеров: 12
Личеров: 10
Автор

СообщениеДобавлено: 08 янв 2012, 13:38 

Не в сети
Зам. Админа
Аватара пользователя
Дата регистрации:
02 дек 2010, 12:39
Спасибо: 12458 / 214
Сообщения: 27968
Король и Шут - Тень Клоуна


Формат: DVD5, DVD Video, MPEG2, MP2
Песня: Тень Клоуна
Жанр: Punk Rock
Продолжительность: 00:53:12
Год выпуска: 2011
Видео: 720x576 (4:3),25 fps,MPEG2 Video, ~6000 kbps avg, 0.579 bit/pixel
Аудио: 48.0 KHz,MPEG Audio, 2 c, ~224 kbps avg
Доп. информация:
Концертный DVD группы «Король и Шут» был записан 10 апреля 2009 года в московском СДК МАИ на презентации программы «Тень Клоуна». Изначально планировалось выпустить концерт на физическом носителе, но в силу ряда причин задуманное осуществить не удалось.
И вот, уже в преддверии записи нового концертного видео, при поддержке RuTracker.org, группа «Король и Шут» презентует широкой общественности концертный DVD «Тень Клоуна».



1 - Тень Клоуна
2 - Кукольный Театр
3 - Дагон
4 - В Париж - Домой
5 - Хозяин Леса
6 - АMTV
7 - Продавец Кошмаров
8 - Лесник
9 - Ром
10 - Проклятый Старый Дом
11 - Кукла Колдуна
12 - Медведь
13 - Прыгну со Скалы




DVDInfo + MediaInfo
Title: Король и Шут - Концерт в СДК МАИ 10.05.2009 (2011)
Size: 2.36 Gb ( 2 477 416,00 KBytes ) - DVD-5
Enabled regions: 1, 2, 3, 4, 5, 6, 7, 8
VTS_01 :
Play Length: 00:53:12
Video: PAL 4:3 (720x576) VBR
Audio:
Not specified, MPA, Delay = 0 mSec
* Menus Information *
VIDEO_TS Menu
Video:
NTSC 4:3 (720x480) VBR
Auto Pan&Scan, Auto Letterboxed
Language Unit :
VTS_01 Menu
Video:
NTSC 4:3 (720x480) VBR
Auto Pan&Scan, Auto Letterboxed
Language Unit :
Chapter (PTT) Menu
Complete name : E:\Downloads\Король и Шут - Концерт в СДК МАИ 10.05.2009 (2011)\VIDEO_TS\VIDEO_TS.BUP
Format : DVD Video
Format profile : Menu
File size : 6.00 KiB
Video
ID : 224 (0xE0)
Format : MPEG Video
Format version : Version 1
Bit rate mode : Variable
Width : 720 pixels
Height : 480 pixels
Display aspect ratio : 4:3
Frame rate : 29.970 fps
Standard : NTSC
General
Complete name : E:\Downloads\Король и Шут - Концерт в СДК МАИ 10.05.2009 (2011)\VIDEO_TS\VIDEO_TS.IFO
Format : DVD Video
Format profile : Menu
File size : 6.00 KiB
Video
ID : 224 (0xE0)
Format : MPEG Video
Format version : Version 1
Bit rate mode : Variable
Width : 720 pixels
Height : 480 pixels
Display aspect ratio : 4:3
Frame rate : 29.970 fps
Standard : NTSC
General
Complete name : E:\Downloads\Король и Шут - Концерт в СДК МАИ 10.05.2009 (2011)\VIDEO_TS\VTS_01_0.BUP
Format : DVD Video
Format profile : Program
File size : 38.0 KiB
Video
ID : 224 (0xE0)
Format : MPEG Video
Format version : Version 2
Bit rate mode : Variable
Width : 720 pixels
Height : 576 pixels
Display aspect ratio : 4:3
Frame rate : 25.000 fps
Standard : PAL
Audio
ID : 0 (0x0)
Format : MPEG Audio
Format profile : Version 1
Channel(s) : 2 channels
Sampling rate : 48.0 KHz
Menu
List (Audio) : 0
General
Complete name : E:\Downloads\Король и Шут - Концерт в СДК МАИ 10.05.2009 (2011)\VIDEO_TS\VTS_01_0.IFO
Format : DVD Video
Format profile : Program
File size : 38.0 KiB
Video
ID : 224 (0xE0)
Format : MPEG Video
Format version : Version 2
Bit rate mode : Variable
Width : 720 pixels
Height : 576 pixels
Display aspect ratio : 4:3
Frame rate : 25.000 fps
Standard : PAL
Audio
ID : 0 (0x0)
Format : MPEG Audio
Format profile : Version 1
Channel(s) : 2 channels
Sampling rate : 48.0 KHz
Menu
List (Audio) : 0
General
Complete name : E:\Downloads\Король и Шут - Концерт в СДК МАИ 10.05.2009 (2011)\VIDEO_TS\VTS_01_1.VOB
Format : MPEG-PS
File size : 1 024 MiB
Duration : 22mn 31s
Overall bit rate : 6 356 Kbps
Video
ID : 224 (0xE0)
Format : MPEG Video
Format version : Version 2
Format profile : Main@Main
Format settings, BVOP : Yes
Format settings, Matrix : Default
Duration : 22mn 31s
Bit rate mode : Constant
Bit rate : 6 000 Kbps
Width : 720 pixels
Height : 576 pixels
Display aspect ratio : 4:3
Frame rate : 25.000 fps
Standard : PAL
Color space : YUV
Chroma subsampling : 4:2:0
Bit depth : 8 bits
Scan type : Interlaced
Scan order : Top Field First
Bits/(Pixel*Frame) : 0.579
Stream size : 968 MiB (94%)
Audio
ID : 192 (0xC0)
Format : MPEG Audio
Format version : Version 1
Format profile : Layer 2
Duration : 22mn 31s
Bit rate mode : Constant
Bit rate : 224 Kbps
Channel(s) : 2 channels
Sampling rate : 48.0 KHz
Stream size : 36.1 MiB (4%)
Menu
General
Complete name : E:\Downloads\Король и Шут - Концерт в СДК МАИ 10.05.2009 (2011)\VIDEO_TS\VTS_01_2.VOB
Format : MPEG-PS
File size : 1 024 MiB
Duration : 22mn 31s
Overall bit rate : 6 356 Kbps
Video
ID : 224 (0xE0)
Format : MPEG Video
Format version : Version 2
Format profile : Main@Main
Format settings, BVOP : Yes
Format settings, Matrix : Default
Format settings, GOP : M=3, N=15
Duration : 22mn 31s
Bit rate mode : Constant
Bit rate : 6 000 Kbps
Width : 720 pixels
Height : 576 pixels
Display aspect ratio : 4:3
Frame rate : 25.000 fps
Standard : PAL
Color space : YUV
Chroma subsampling : 4:2:0
Bit depth : 8 bits
Scan type : Interlaced
Scan order : Top Field First
Bits/(Pixel*Frame) : 0.579
Stream size : 968 MiB (94%)
Audio
ID : 192 (0xC0)
Format : MPEG Audio
Format version : Version 1
Format profile : Layer 2
Duration : 22mn 31s
Bit rate mode : Constant
Bit rate : 224 Kbps
Channel(s) : 2 channels
Sampling rate : 48.0 KHz
Video delay : -128ms
Stream size : 36.1 MiB (4%)
Menu
General
Complete name : E:\Downloads\Король и Шут - Концерт в СДК МАИ 10.05.2009 (2011)\VIDEO_TS\VTS_01_3.VOB
Format : MPEG-PS
File size : 371 MiB
Duration : 8mn 10s
Overall bit rate : 6 354 Kbps
Video
ID : 224 (0xE0)
Format : MPEG Video
Format version : Version 2
Format profile : Main@Main
Format settings, BVOP : Yes
Format settings, Matrix : Default
Duration : 8mn 10s
Bit rate mode : Constant
Bit rate : 6 000 Kbps
Width : 720 pixels
Height : 576 pixels
Display aspect ratio : 4:3
Frame rate : 25.000 fps
Standard : PAL
Color space : YUV
Chroma subsampling : 4:2:0
Bit depth : 8 bits
Scan type : Interlaced
Scan order : Top Field First
Bits/(Pixel*Frame) : 0.579
Stream size : 351 MiB (94%)
Audio
ID : 192 (0xC0)
Format : MPEG Audio
Format version : Version 1
Format profile : Layer 2
Duration : 8mn 10s
Bit rate mode : Constant
Bit rate : 224 Kbps
Channel(s) : 2 channels
Sampling rate : 48.0 KHz
Video delay : -168ms
Stream size : 13.1 MiB (4%)






Поделиться:




реклама партнёра


Вернуться к началу
 Профиль  
 
   Похожие торренты   Автор   Торрент   Размер 
В этой теме нет новых непрочитанных сообщений. Король и Шут - Король вечного сна (Live) [2011, Punk Rock, MP3]

PriZraK

12 | 4

154.93 МБ

В этой теме нет новых непрочитанных сообщений. Король и Шут - Лучшее [2013, Punk Rock, FLAC]

Nickolas3435

278 | 39

1.19 ГБ

В этой теме нет новых непрочитанных сообщений. Король и Шут - Фильм-концерт «На Краю» [09.02] [2014, Punk Rock, WEB-DL 1080p]

Nickolas3435

450 | 23

4.16 ГБ

В этой теме нет новых непрочитанных сообщений. Garlic Kings - С берегов балтийских [2011, Punk Rock,Folk Punk, MP3]

PriZraK

0 | 1

75.89 МБ

В этой теме нет новых непрочитанных сообщений. The Generators : Last of the Pariahs [2011, Punk Rock, Punk'n'Roll, MP3]

PriZraK

0 | 1

66.59 МБ

В этой теме нет новых непрочитанных сообщений. Udodz - Всё меняется [2011, Pop-Punk, Punk-Rock, MP3]

PriZraK

0 | 1

77.56 МБ

В этой теме нет новых непрочитанных сообщений. VA - The Best Punk Anthems Ever (2CD) [1998, Punk Rock, Pop Punk, Power Pop, MP3]

PriZraK

0 | 1

364.43 МБ


Начать новую тему Ответить на тему  [ 1 сообщение ] 




Для Мосгорсуда, Роскомнадзора и рекламодателей:: mosgorsud-torrent[собачка]yandex.ru