Торрент файл
скачать торрент магнет ссылка Добавлен: 08 янв 2012, 13:34
Размер: 40.79 МБ
Сидеров: 0
Личеров: 3
Автор

СообщениеДобавлено: 08 янв 2012, 13:34 

Не в сети
Зам. Админа
Аватара пользователя
Дата регистрации:
02 дек 2010, 12:39
Спасибо: 12623 / 214
Сообщения: 28012
Variant Flava - Стадо

Формат: HDTVRip, MPEG-4, AVC, AAC
Песня: Стадо
Жанр: Rap
Продолжительность: 00:03:04
Год выпуска: 6 февраля 2011
Видео: 1280*720, PAL 16/9, AVC CBR, 25.000 кадр/сек, 1730 Кбит/сек, 0.075 bit/pixel
Аудио: AAC LC, 2 канала, 128 Кбит/сек, 44,1 КГц





Доп. информация:
Общее
Полное имя: D:\variant flava - стадо\Variant Flava - Стадо.mp4
Формат: MPEG-4
Профиль формата: Base Media / Version 2
Идентификатор кодека: mp42
Размер файла: 40,8 Мбайт
Продолжительность: 3 м. 3 с.
Общий поток: 1862 Кбит/сек
Дата кодирования: UTC 2011-02-05 09:26:50
Дата пометки: UTC 2011-02-05 09:26:50
gsst: 0
gstd: 183800
gssd: B4A7DD083MH1299494469422806
gshh: v3.cache5.c.youtube.com

Видео
Идентификатор: 1
Формат: AVC
Формат/Информация: Advanced Video Codec
Профиль формата: High@L3.1
Параметр CABAC формата: Да
Параметр ReFrames формата: 1 кадр
Идентификатор кодека: avc1
Идентификатор кодека/Информация: Advanced Video Coding
Продолжительность: 3 м. 3 с.
Вид битрейта: Переменный
Битрейт: 1730 Кбит/сек
Максимальный битрейт: 3567 Кбит/сек
Ширина: 1280 пикс.
Высота: 720 пикс.
Соотношение сторон: 16:9
Режим частоты кадров: Постоянный
Частота кадров: 25,000 кадр/сек
Цветовое пространство: YUV
Подвыборка цветности: 4:2:0
Битовая глубина: 8 бит
Тип развёртки: Прогрессивная
Бит/(Пиксели*Кадры): 0.075
Размер потока: 37,9 Мбайт (93%)
Дата пометки: UTC 2011-02-05 09:26:56

Аудио
Идентификатор: 2
Формат: AAC
Формат/Информация: Advanced Audio Codec
Профиль формата: LC
Идентификатор кодека: 40
Продолжительность: 3 м. 2 с.
Вид битрейта: Переменный
Битрейт: 128 Кбит/сек
Максимальный битрейт: 161 Кбит/сек
Канал(ы): 2 канала(ов)
Расположение каналов: Front: L R
Частота: 44,1 КГц
Метод сжатия: С потерями
Размер потока: 2,79 Мбайт (7%)
Заголовок: (C) 2007 Google Inc. v08.13.2007.
Дата кодирования: UTC 2011-02-05 09:26:53
Дата пометки: UTC 2011-02-05 09:26:56

Поделиться:




реклама партнёра


Вернуться к началу
 Профиль  
 
   Похожие торренты   Автор   Торрент   Размер 
В этой теме нет новых непрочитанных сообщений. C 23 февраля [2016 г., Amateur,Russian Girls,Solo,Bbw, CamRip]

Dievas

4 | 1

281.05 МБ

В этой теме нет новых непрочитанных сообщений. Ключи для ESET, Kaspersky, Avast, Dr.Web, Avira [от 25 февраля] (2017) PC

salma3

146 | 181

2.93 МБ

В этой теме нет новых непрочитанных сообщений. Родственник [драма, криминал, 2011] HDTVRip

salma3

120 | 42

1.37 ГБ

В этой теме нет новых непрочитанных сообщений. Родственник [драма, криминал, 2011] HDTVRip-AVC

salma3

101 | 28

1.37 ГБ

В этой теме нет новых непрочитанных сообщений. Забытый [01-04 из 04] [Криминал, драма, 2011] HDTVRip

salma3

546 | 158

1.46 ГБ

В этой теме нет новых непрочитанных сообщений. Не укради [Детектив, боевик, 2011] HDTVRip 720p

salma3

241 | 48

2.34 ГБ

В этой теме нет новых непрочитанных сообщений. Железный Ганс / Der Eisenhans [Фэнтези, 2011] HDTVRip, Mvo [ТВЦ]

salma3

133 | 12

1.37 ГБ


Начать новую тему Ответить на тему  [ 1 сообщение ] 




Для Мосгорсуда, Роскомнадзора и рекламодателей:: mosgorsud-torrent[собачка]yandex.ru