Торрент файл
скачать торрент магнет ссылка Добавлен: 08 янв 2012, 13:34
Размер: 48.18 МБ
Сидеров: 0
Личеров: 3
Автор

СообщениеДобавлено: 08 янв 2012, 13:34 

Не в сети
Зам. Админа
Аватара пользователя
Дата регистрации:
02 дек 2010, 12:39
Спасибо: 12588 / 214
Сообщения: 28049
Кипа - Переворот

Формат: HDTVRip, MPEG-4, AVC, AAC
Песня: Переворот
Жанр: Rap
Продолжительность: 00:03:33
Год выпуска: 7 марта 2011
Видео: 1280*720, PAL 16:9, AVC CBR, 25,000 кадр/сек, 0.077 bit/pixel
Аудио: AAC LC, 2 канала, 127 Кбит/сек, 44,1 КГц





Общее
Полное имя: D:\Kipa\Kipa_-_Perevorot_2011.mp4
Формат: MPEG-4
Профиль формата: Base Media / Version 2
Идентификатор кодека: mp42
Размер файла: 48,2 Мбайт
Продолжительность: 3 м. 33 с.
Общий поток: 1897 Кбит/сек
Дата кодирования: UTC 2011-03-01 00:42:45
Дата пометки: UTC 2011-03-01 00:42:45
gsst: 0
gstd: 213040
gssd: BD075F482MH1299191060679997
gshh: tc.v2.cache3.c.youtube.com

Видео
Идентификатор: 1
Формат: AVC
Формат/Информация: Advanced Video Codec
Профиль формата: High@L3.1
Параметр CABAC формата: Да
Параметр ReFrames формата: 1 кадр
Идентификатор кодека: avc1
Идентификатор кодека/Информация: Advanced Video Coding
Продолжительность: 3 м. 33 с.
Вид битрейта: Переменный
Битрейт: 1765 Кбит/сек
Максимальный битрейт: 5119 Кбит/сек
Ширина: 1280 пикс.
Высота: 720 пикс.
Соотношение сторон: 16:9
Режим частоты кадров: Постоянный
Частота кадров: 25,000 кадр/сек
Цветовое пространство: YUV
Подвыборка цветности: 4:2:0
Битовая глубина: 8 бит
Тип развёртки: Прогрессивная
Бит/(Пиксели*Кадры): 0.077
Размер потока: 44,8 Мбайт (93%)
Дата пометки: UTC 2011-03-01 00:42:47

Аудио
Идентификатор: 2
Формат: AAC
Формат/Информация: Advanced Audio Codec
Профиль формата: LC
Идентификатор кодека: 40
Продолжительность: 3 м. 32 с.
Вид битрейта: Переменный
Битрейт: 127 Кбит/сек
Максимальный битрейт: 151 Кбит/сек
Канал(ы): 2 канала(ов)
Расположение каналов: Front: L R
Частота: 44,1 КГц
Метод сжатия: С потерями
Размер потока: 3,23 Мбайт (7%)
Заголовок: (C) 2007 Google Inc. v08.13.2007.
Дата кодирования: UTC 2011-03-01 00:42:46
Дата пометки: UTC 2011-03-01 00:42:47

Поделиться:




реклама партнёра


Вернуться к началу
 Профиль  
 
   Похожие торренты   Автор   Торрент   Размер 
В этой теме нет новых непрочитанных сообщений. Приятный на вид / Eye Candy (Нэйтан Хоуп, Марта Митчелл, Рассел Малкэй) [2015, триллер, драма, криминал, детектив, HDTVRip | Alternative Production]

Nickolas3435

41 | 9

5.43 ГБ

В этой теме нет новых непрочитанных сообщений. Сборник - Главная дискотека марта №2 (2017) MP3

salma3

1313 | 218

671.19 МБ

В этой теме нет новых непрочитанных сообщений. Сборник - 8 марта. Хит-парад для любимых [2015, Pop, Dance, MP3]

Dracon

75 | 3

855.63 МБ

В этой теме нет новых непрочитанных сообщений. Ключи для ESET, Kaspersky, Avast, Dr.Web, Avira [от 26 марта] (2017) PC

salma3

137 | 173

2.86 МБ

В этой теме нет новых непрочитанных сообщений. Ключи для ESET, Kaspersky, Avast, Dr.Web, Avira [от 13 марта] (2017) PC

salma3

156 | 92

2.93 МБ

В этой теме нет новых непрочитанных сообщений. VA - Awakening [8 Марта 2012, Rock,Metal,Female Vocal, MP3]

PriZraK

0 | 1

968.49 МБ

В этой теме нет новых непрочитанных сообщений. Ключи для ESET, Kaspersky, Avast, Dr.Web, Avira [от 19 марта] (2017) PC

salma3

202 | 204

2.86 МБ


Начать новую тему Ответить на тему  [ 1 сообщение ] 




Для Мосгорсуда, Роскомнадзора и рекламодателей:: mosgorsud-torrent[собачка]yandex.ru