Торрент файл
скачать торрент магнет ссылка Добавлен: 08 янв 2012, 13:22
Размер: 11.08 ГБ
Сидеров: 5
Личеров: 5
Автор

СообщениеДобавлено: 08 янв 2012, 13:22 

Не в сети
Зам. Админа
Аватара пользователя
Дата регистрации:
02 дек 2010, 12:39
Спасибо: 12461 / 214
Сообщения: 27968
Супердискотека / СупердискотЭка 90-х c MTV [Расширенная TV версия]

Формат: DVB (QWERTY.TV), MPEG, MPEG2, MP2
Жанр: Pop
Продолжительность: 03:10:30
Год выпуска: 2011
Видео: 720х576 (PAL 4:3),25,000 fps, MPEG2, 7800 kbps avg , 0.752 bit/pixel
Аудио: 48,0 КГц ,MPEG Layer 2, 2 ch, ~384 kbps avg
Доп. информация: 12 марта зрители телеканала MTV и гости СК «Олимпийский» окунутся в атмосферу девяностых. В легендарном СК пройдет ретромегадэнс «СупердискотЭка 90-х с MTV», где самые топовые артисты 90-х взорвут зал своими хитами.

Вспомните, как покупали жвачку с вкладышем-татуировкой и переводили ее на себя, друзей и домашнюю мебель. Вспомните, как впервые попробовали Mentos и «Киндер-сюрприз». Как до дыр засматривал видеокассеты с клипами C+C Music Factory, Vanilla Ice, Technotronic и MC Hammer. Тогда еще не задавались вопросом - силиконовый ли бюст у певицы Сабрины, и вся страна обсуждала каждое новое видео группы «Комбинация» или «Технология». Это был настоящий прорыв после долгих лет социалистического застоя.
«Руки вверх», «Вирус», Влад Сташевский, «Отпетые мошенники», Кай Метов, «Мальчишник», «Демо», Шура, Scooter, «Кар-Мэн», Rednex и многие другие обещают нереальный драйв и отжиг!

01.Шоу-балет Todes - Я из 90-х
02.Вирус - Ручки
03.Иванушки Int - Тополиный пух
04.Иванушки Int - Тучи
05.Кай Метов - Position №1
06.Технология - Всё, что ты хочешь
07.Технология - Странные танцы
08.Технология - Нажми на кнопку
09.Шура - Отшумели летние дожди
10.Влад Сташевский - Я не буду тебя больше ждать
11.Кристиан Рэй и MF-3 - Наше поколение
12.Света - Что мне делать сегодня ?
13.Демо - Солнышко в руках
14.MC Вспышкин & Никифоровна - Шишки
15.Sash! - Equador
16.Sash! - Adelante
17.Rednex - Cotton eye joe
18.Rednex - Wish you were here
19.Мальчишник - Секс без перерыва
20.Мальчишник - Последний раз
21.Отпетые Мошенники - Всяко-разно
22.Отпетые Мошенники - Люби меня,люби
23.Комбинация - Два кусочека колбаски
24.Комбинация - Бухгалтер
25.2 Unlimited - No limit
26.2 Unlimited - Tribal dance
27.Кар-Мэн - Сан-Франциско
28.Кар-Мэн - Чио чио сан
29.Кар-Мэн - Лондон, гуд-бай
30.Scooter - Fire
31.Scooter - How much is the fish?
32.Scooter - Maria
33.Руки Вверх - Алёшка
34.Руки Вверх - Ну где же вы, девчонки
35.Руки Вверх - Студент
36.Руки Вверх - Крошка моя
37.Все участники - Я из 90-х

Автор записи [/field]

Формат: MPEG-PS
Размер файла: 11,1 Гбайт
Продолжительность: 3 ч. 10 м.
Общий поток: 8327 Кбит/сек
Библиотека кодирования: (c) 1998-2008 Womble Multimedia, Inc. / MPEG Video Wizard (12/200 / Feb 12 2009

Видео
Идентификатор: 224 (0xE0)
Формат: MPEG Video
Версия формата: Version 2
Профиль формата: Main@Main
Параметр BVOP формата: Да
Параметр матрицы формата: По умолчанию
Параметры GOP формата: M=3, N=12
Продолжительность: 3 ч. 10 м.
Вид битрейта: Переменный
Битрейт: 7800 Кбит/сек
Ширина: 720 пикс.
Высота: 576 пикс.
Соотношение сторон: 4:3
Частота кадров: 25,000 кадр/сек
Стандарт вещания: PAL
Цветовое пространство: YUV
Подвыборка цветности: 4:2:0
Битовая глубина: 8 бит
Тип развёртки: Чересстрочная
Порядок развёртки: Верхнее поле первое
Метод сжатия: С потерями
Бит/(Пиксели*Кадры): 0.752
Размер потока: 10,3 Гбайт (93%)
Библиотека кодирования: (c) 1998-2008 Womble Multimedia, Inc. / MPEG Video Wizard (12/200 / Feb 12 2009

Аудио
Идентификатор: 192 (0xC0)
Формат: MPEG Audio
Версия формата: Version 1
Профиль формата: Layer 2
Продолжительность: 3 ч. 10 м.
Вид битрейта: Постоянный
Битрейт: 384 Кбит/сек
Канал(ы): 2 канала(ов)
Частота: 48,0 КГц
Метод сжатия: С потерями
Размер потока: 523 Мбайт (5%)













Поделиться:




реклама партнёра


Вернуться к началу
 Профиль  
 
   Похожие торренты   Автор   Торрент   Размер 
В этой теме нет новых непрочитанных сообщений. Дубровский [01-05 из 05] [Драма, криминал, 2014] SATRip [Расширенная версия]

Dracon

58 | 9

2.71 ГБ

В этой теме нет новых непрочитанных сообщений. Шпион / Spy (Пол Фиг) [Боевик, комедия, 2015] WEB-DL 720p, Avo [Расширенная версия]

Dracon

1565 | 155

2.52 ГБ

В этой теме нет новых непрочитанных сообщений. Быстрее, чем кролики [комедия, 2014] WEB-DLRip 720p [Расширенная версия]

Dracon

8 | 2

3.01 ГБ

В этой теме нет новых непрочитанных сообщений. Шпион / Spy (Пол Фиг) [Боевик, комедия, 2015] HDRip, Dub [Расширенная версия | iTunes]

Dracon

241 | 12

1.37 ГБ

В этой теме нет новых непрочитанных сообщений. Шпион / Spy (Пол Фиг) [Боевик, комедия, 2015] HDRip, Dub [Расширенная версия | iTunes]

Dracon

112 | 4

2.05 ГБ

В этой теме нет новых непрочитанных сообщений. Евгений Онегин, расширенная версия с комментариями и иллюстрациями [А.С. Пушкин, 2015, PDF]

melua3

0 | 0

59.16 МБ

В этой теме нет новых непрочитанных сообщений. Шпион / Spy (Пол Фиг) [Боевик, комедия, 2015] BDRip 1080p, Dub [Расширенная версия | iTunes]

Dracon

80 | 11

10.19 ГБ


Начать новую тему Ответить на тему  [ 1 сообщение ] 




Для Мосгорсуда, Роскомнадзора и рекламодателей:: mosgorsud-torrent[собачка]yandex.ru