Торрент файл
скачать торрент магнет ссылка Добавлен: 08 янв 2012, 13:06
Размер: 3.31 ГБ
Сидеров: 3
Личеров: 4
Автор

СообщениеДобавлено: 08 янв 2012, 13:06 

Не в сети
Зам. Админа
Аватара пользователя
Дата регистрации:
02 дек 2010, 12:39
Спасибо: 12650 / 214
Сообщения: 28010
VA - The History of Eurodance Vol.3


Формат: DVD5, DVD Video, MPEG2, AC3
Песня: The History of Eurodance Vol.3
Жанр: Eurodance
Продолжительность: 01:20:14
Год выпуска: 2010
Видео: 720x576 (PAL 4:3), 25 fps, MPEG-2, ~34,7 Mbps avg, 3.350 bit/pixel
Аудио: 48 kHz, AC-3, 2 ch, 320.00 kbps avg
Доп. информация: Евродэнс (Eurodance, от european — европейский и dance — танцевальный) — собирательный термин для направления европейской электронной танцевальной музыки, появившегося в начале 1990-х годов и имевшем пик популярности в начале—середине 90-х. В наше время популярность этого направления (а не стиля как такового) значительно снизилась. Сочетает в себе элементы Техно, хаус, итало-диско, хай-энерджи, синтипопа и иногда хип-хопа. Включает в себя множество относительно самостоятельных направлений музыки. Главными "поставщиками" евродэнс-звезд были такие страны как: Германия, Швеция и Нидерланды.
Вся сборка состоит из 5 DVD дисков.

1. 2 Brothers On The 4th Floor - Wonderful Feeling
2. Ace Of Base - Happy Nation
3. Basic Element - This Must Be A Dream
4. Centory - The Spirit
5. DJ Bobo - Keep On Dancing
6. Dj Company - The Rhythm Of Love
7. Dr. Alban - It's My Life
8. Dune - I Cant Stop Raving
9. E-Rotic - Max Don't Have Sex (With Your Ex)
10. Imperio - Atlantis
11. Magic Affair - Night Of The Raven
12. Masterboy - I need a lover tonight
13. Maxx - Get-A-Way
14. Mo-Do - Super Gut
15. Scatman John - Everybody Jam
16. Scooter - How Much Is The Fish
17. Snap - Rhythm The Dancer
18. Solid Base - This Is How We Do It
19. Tania Evans - Prisoner Of Love (la da di)
20. Twenty 4 Seven - We Are The World
21. U96 - Heaven
22. Vengaboys - We Like To Party

Общее
Формат: MPEG-PS
Общий поток: 35,8 Мбит/сек

Видео
Идентификатор: 224 (0xE0)
Формат: MPEG Video
Версия формата: Version 2
Профиль формата: Main@Main
Параметр BVOP формата: Да
Параметр матрицы формата: По умолчанию
Параметры GOP формата: M=3, N=13
Вид битрейта: Постоянный
Битрейт: 34,7 Мбит/сек
Номинальный битрейт: 9200 Кбит/сек
Ширина: 720 пикс.
Высота: 576 пикс.
Соотношение сторон: 4:3
Частота кадров: 25,000 кадр/сек
Стандарт вещания: PAL
Цветовое пространство: YUV
Подвыборка цветности: 4:2:0
Битовая глубина: 8 бит
Тип развёртки: Чересстрочная
Порядок развёртки: Верхнее поле первое
Метод сжатия: С потерями
Бит/(Пиксели*Кадры): 3.350
Размер потока: 285 Мбайт (97%)

Аудио
Идентификатор: 128 (0x80)
Формат: AC-3
Формат/Информация: Audio Coding 3
Расширение режима: CM (complete main)
Вид битрейта: Постоянный
Битрейт: 320 Кбит/сек
Канал(ы): 2 канала(ов)
Расположение каналов: Front: L R
Частота: 48,0 КГц
Битовая глубина: 16 бит
Метод сжатия: С потерями
Задержка видео: -184 мс.
Размер потока: 2,63 Мбайт (1%)









Поделиться:



Вернуться к началу
 Профиль  
 
   Похожие торренты   Автор   Торрент   Размер 
В этой теме нет новых непрочитанных сообщений. Сборник - Back To The 80s [Pop, Disco, Eurodance, 2017] MP3 / 320 kbrs

salma3

134 | 17

1.36 ГБ

В этой теме нет новых непрочитанных сообщений. Сборник - Дискотека 80-90 х По-Новому Зарубежный выпуск 5 [Eurodance, Dance, Disco 2015] 320 kbps ,MP3

yurban

330 | 11

1.08 ГБ

В этой теме нет новых непрочитанных сообщений. VA - Best hits of 90! / Лучшие Хиты 90-х! (DJ Sergio) от NNNB [2014, Eurodance, Pop, Dance, Rap&Hip-hop, House, Club, MP3]

salma3

91 | 9

6.43 ГБ

В этой теме нет новых непрочитанных сообщений. VA-Новогодние песни [1945-2016, Pop, Rock, Disco, Eurodance, House, R&B, Hip-Hop, Rap, Jazz, Retro, Country, Chanson, Electronic, Lounge, Instrumenta ]MP3

Aleksandr.ru

115 | 81

11.35 ГБ

В этой теме нет новых непрочитанных сообщений. Сборник - Ретро Вечеринка [Поп, Ретро, Disco, Eurodance, 2017] MP3 / 320 kpbs

salma3

62 | 17

935.35 МБ

В этой теме нет новых непрочитанных сообщений. History: Legends of War [Strategy, 2014] [RePack]

Sykre

15 | 0

3.58 ГБ

В этой теме нет новых непрочитанных сообщений. Американская история X / American History X [боевик, триллер, криминал, 1998] BDRip-HEVC 1080p, Mvo

salma3

0 | 0

5.78 ГБ


Начать новую тему Ответить на тему  [ 1 сообщение ] 




Для Мосгорсуда, Роскомнадзора и рекламодателей:: mosgorsud-torrent[собачка]yandex.ru
cron