Торрент файл
скачать торрент магнет ссылка Добавлен: 08 янв 2012, 13:05
Размер: 4.32 ГБ
Сидеров: 0
Личеров: 4
Автор

СообщениеДобавлено: 08 янв 2012, 13:05 

Не в сети
Зам. Админа
Аватара пользователя
Дата регистрации:
02 дек 2010, 12:39
Спасибо: 12460 / 214
Сообщения: 27968
Celine Dion - Taking Chances World Tour (The Concert in Boston)


Формат: DVD5, DVD Video, MPEG2, AC3
Песня: Taking Chances World Tour - The Concert (August 2008 in Boston)
Жанр: Pop
Продолжительность: 01:42:04
Год выпуска: 2010

Видео: 720x480 (NTSC 16:9), 29,970 fps, MPEG-2, ~5367 kbps avg, 0.518 bit/pixel
Аудио 1: 48 kHz, AC-3, 2 ch, 192.00 kbps avg
Аудио 2: 48 kHz, AC-3, 6 ch (Front: L C R, Side: L R, LFE), 448.00 kbps avg

Доп. информация: Селин Дион (Celinе Dion) - певица родом из Канады, которая покорила мировой музыкальный Олимп с головокружительной быстротой. За десять лет своей стремительной карьеры она стала одной из наиболее любимых и популярных поп-звезд в мире. Тираж ее альбомов только в Соединенных Штатах Америки достиг 50 миллионов, она входит в Тор 30 самых продаваемых американских исполнителей. А во всем мире ее записи разлетелись тиражом более 200 миллионов дисков...
Турне Taking chances World Tour продлилось с февраля 2008 по февраль 2009 года и охватило более 100 городов.
Восхитительный концерт Celine Dion в Бостоне (август 2008 г.), теперь есть возможность присоединиться к зрителям этого великолепного шоу и нам. В память оFreddie Mercury она исполнила песни We Will Rock You, The Show Must Go On - это было что-то...

01. I Drove all Night
02. The Power Of Love
03. Taking Chances
04. Hits Medley (It's All Coming Back To Me Now, Because You Loved Me, To Love You More)
05. Eyes On Me
06. All By Myself
07. I'm Alive
08. Shadow Of Love
09. Fade Away
10. Alone
11. My Love
12. The Prayer
13. Pour Que Tu M'aimes Encore
14. Tribute To Queen Medley (We Will Rock You, The Show Must Go On)
15. Soul Medley (Sex Machine, Soul Man, Lady Marmalade, Sir Duke, Respect, I Got The Feelin', I Got You (I Feel Good), It's a Man's Man's Man's World)
16. Love Can Move Mountains
17. River Deep, Mountain High
18. My Heart Will Go On

Общее
Формат: MPEG-PS
Общий поток: 6129 Кбит/сек

Видео
Идентификатор: 224 (0xE0)
Формат: MPEG Video
Версия формата: Version 2
Профиль формата: Main@Main
Параметр BVOP формата: Да
Параметр матрицы формата: По умолчанию
Вид битрейта: Переменный
Битрейт: 5367 Кбит/сек
Ширина: 720 пикс.
Высота: 480 пикс.
Соотношение сторон: 16:9
Частота кадров: 29,970 кадр/сек
Стандарт вещания: NTSC
Цветовое пространство: YUV
Подвыборка цветности: 4:2:0
Битовая глубина: 8 бит
Метод сжатия: С потерями
Бит/(Пиксели*Кадры): 0.518
Размер потока: 897 Мбайт (88%)

Аудио #1
Идентификатор: 128 (0x80)
Формат: AC-3
Формат/Информация: Audio Coding 3
Расширение режима: CM (complete main)
Вид битрейта: Постоянный
Битрейт: 192 Кбит/сек
Канал(ы): 2 канала(ов)
Расположение каналов: Front: L R
Частота: 48,0 КГц
Битовая глубина: 16 бит
Метод сжатия: С потерями
Размер потока: 32,1 Мбайт (3%)

Аудио #2
Идентификатор: 129 (0x81)
Формат: AC-3
Формат/Информация: Audio Coding 3
Расширение режима: CM (complete main)
Вид битрейта: Постоянный
Битрейт: 448 Кбит/сек
Канал(ы): 6 канала(ов)
Расположение каналов: Front: L C R, Side: L R, LFE
Частота: 48,0 КГц
Битовая глубина: 16 бит
Метод сжатия: С потерями
Размер потока: 74,8 Мбайт (7%)













Поделиться:




реклама партнёра


Вернуться к началу
 Профиль  
 
   Похожие торренты   Автор   Торрент   Размер 
В этой теме нет новых непрочитанных сообщений. Taking Dawn - Time To Burn, Taking Dawn [2009,Hard rock, Heavy metal,MP3]

PriZraK

0 | 2

108.56 МБ

В этой теме нет новых непрочитанных сообщений. Madonna - The Re-Invention World tour (live) [Поп, 2010] DVDRip

salma3

3 | 1

2.05 ГБ

В этой теме нет новых непрочитанных сообщений. Korn - The Paradigm Shift (World Tour Edition) [2014, Nu Metal, MP3]

PriZraK

3 | 4

196.51 МБ

В этой теме нет новых непрочитанных сообщений. August Burns Red - August Burns Red Presents: Sleddin' Hill, A Holiday Album [2012, Metalcore, Instrumental, MP3]

PriZraK

0 | 1

100.86 МБ

В этой теме нет новых непрочитанных сообщений. Duke Nukem 3D: 20th Anniversary World Tour [Action, Shooter, First-person, 3D, 2016] [RePack]

Sykre

1 | 12

957.07 МБ

В этой теме нет новых непрочитанных сообщений. Wild August - Wild August 2 [1991, Hard Rock, MP3]

PriZraK

0 | 1

66.1 МБ

В этой теме нет новых непрочитанных сообщений. August Ames / Last Creampie for August Ames (2015) HD 720p

Dile-1

12 | 3

1 ГБ


Начать новую тему Ответить на тему  [ 1 сообщение ] 




Для Мосгорсуда, Роскомнадзора и рекламодателей:: mosgorsud-torrent[собачка]yandex.ru