Торрент файл
скачать торрент магнет ссылка Добавлен: 08 янв 2012, 12:58
Размер: 4.23 ГБ
Сидеров: 0
Личеров: 7
Автор

СообщениеДобавлено: 08 янв 2012, 12:58 

Не в сети
Зам. Админа
Аватара пользователя
Дата регистрации:
02 дек 2010, 12:39
Спасибо: 12623 / 214
Сообщения: 28012
Chris Norman - Com Back Show

Формат: DVD5, DVD Video, MPEG2, AC3
Песня: Com Back Show
Жанр: Rock-pop
Продолжительность: 02:14:32
Год выпуска: 2004

Видео: 720x576 (PAL 4:3), 25 fps, MPEG-2, ~3964 kbps avg, 0.382 bit/pixel
Аудио: 48 kHz, AC-3, 2 ch, 448.00 kbps avg

Доп. информация: Cборка - только выступления Chris Normana на Com Back Show 2004 в Германии.
А так же интервью, рекламные акции и прочие разговоры.

01-Angel Of Berlin
02-Summer Of 69
03-In The Midnight Hour
04-first Cut Is The Deepest
05-With A Little Help
06-Stumblin'in
07-Missing You
08-Still Haven Found You...
09-Rock'n'Roll
10-Survivor
11-Summer Of 69(finale)
12-Reunion Smokie
13-Amazing
14-Survivor Live

Общее
Формат: MPEG-PS
Общий поток: 4501 Кбит/сек

Видео
Идентификатор: 224 (0xE0)
Формат: MPEG Video
Версия формата: Version 2
Профиль формата: Main@Main
Параметр BVOP формата: Да
Параметр матрицы формата: По умолчанию
Параметры GOP формата: M=3, N=12
Вид битрейта: Переменный
Битрейт: 3964 Кбит/сек
Номинальный битрейт: 4500 Кбит/сек
Ширина: 720 пикс.
Высота: 576 пикс.
Соотношение сторон: 4:3
Частота кадров: 25,000 кадр/сек
Стандарт вещания: PAL
Цветовое пространство: YUV
Подвыборка цветности: 4:2:0
Битовая глубина: 8 бит
Тип развёртки: Чересстрочная
Порядок развёртки: Нижнее поле первое
Метод сжатия: С потерями
Бит/(Пиксели*Кадры): 0.382
Размер потока: 860 Мбайт (88%)

Аудио
Идентификатор: 128 (0x80)
Формат: AC-3
Формат/Информация: Audio Coding 3
Расширение режима: CM (complete main)
Вид битрейта: Постоянный
Битрейт: 448 Кбит/сек
Канал(ы): 2 канала(ов)
Расположение каналов: Front: L R
Частота: 48,0 КГц
Битовая глубина: 16 бит
Метод сжатия: С потерями
Размер потока: 97,2 Мбайт (10%)










Поделиться:




реклама партнёра


Вернуться к началу
 Профиль  
 
   Похожие торренты   Автор   Торрент   Размер 
В этой теме нет новых непрочитанных сообщений. Chris Norman - Crossover (2015. Pop-Rock, Soft-Rock ) MP3 320 kbps

Aleksandr.ru

431 | 13

115.75 МБ

В этой теме нет новых непрочитанных сообщений. Рождение оборотня / Ginger Snaps Back: The Beginning [ужасы, драма, 2004] DVDRip-AVC, Dvo

salma3

17 | 3

2.57 ГБ

В этой теме нет новых непрочитанных сообщений. Джек Ричер 2: Никогда не возвращайся / Jack Reacher: Never Go Back [Боевик, триллер, криминал, 2016] DVD5, Dub

salma3

57 | 48

4.38 ГБ

В этой теме нет новых непрочитанных сообщений. Стратегия Оппенгеймера / Norman: The Moderate Rise and Tragic Fall of a New York Fixer [триллер, драма, 2016] HDRip, Mvo

salma3

0 | 0

1.45 ГБ

В этой теме нет новых непрочитанных сообщений. Стратегия Оппенгеймера / Norman: The Moderate Rise and Tragic Fall of a New York Fixer [триллер, драма, 2016] BDRip 720p, Mvo

salma3

0 | 0

3.52 ГБ

В этой теме нет новых непрочитанных сообщений. [1000Facials.com / MyXXXPass.com] Carolina Sweets (Back to Back Black / 25.09.2017) [2017 г., Blowjob (Double),Cumshot,Facial,Brunette,Petite,Blowjob,Cum Swallowing,Teen,2-on-1,Deepthroat,Gagging,Black,Cum in mouth,Face Fuck, 1080p]

salma3

29 | 9

955.96 МБ

В этой теме нет новых непрочитанных сообщений. Из 13 в 30 / 13 Going on 30 [Комедия, мелодрама, 2004] DVD5, Mvo

salma3

7 | 0

4.33 ГБ


Начать новую тему Ответить на тему  [ 1 сообщение ] 




Для Мосгорсуда, Роскомнадзора и рекламодателей:: mosgorsud-torrent[собачка]yandex.ru