Торрент файл
скачать торрент магнет ссылка Добавлен: 08 янв 2012, 12:58
Размер: 4.23 ГБ
Сидеров: 0
Личеров: 7
Автор

СообщениеДобавлено: 08 янв 2012, 12:58 

Не в сети
Зам. Админа
Аватара пользователя
Дата регистрации:
02 дек 2010, 12:39
Спасибо: 12460 / 214
Сообщения: 27968
Chris Norman - Com Back Show

Формат: DVD5, DVD Video, MPEG2, AC3
Песня: Com Back Show
Жанр: Rock-pop
Продолжительность: 02:14:32
Год выпуска: 2004

Видео: 720x576 (PAL 4:3), 25 fps, MPEG-2, ~3964 kbps avg, 0.382 bit/pixel
Аудио: 48 kHz, AC-3, 2 ch, 448.00 kbps avg

Доп. информация: Cборка - только выступления Chris Normana на Com Back Show 2004 в Германии.
А так же интервью, рекламные акции и прочие разговоры.

01-Angel Of Berlin
02-Summer Of 69
03-In The Midnight Hour
04-first Cut Is The Deepest
05-With A Little Help
06-Stumblin'in
07-Missing You
08-Still Haven Found You...
09-Rock'n'Roll
10-Survivor
11-Summer Of 69(finale)
12-Reunion Smokie
13-Amazing
14-Survivor Live

Общее
Формат: MPEG-PS
Общий поток: 4501 Кбит/сек

Видео
Идентификатор: 224 (0xE0)
Формат: MPEG Video
Версия формата: Version 2
Профиль формата: Main@Main
Параметр BVOP формата: Да
Параметр матрицы формата: По умолчанию
Параметры GOP формата: M=3, N=12
Вид битрейта: Переменный
Битрейт: 3964 Кбит/сек
Номинальный битрейт: 4500 Кбит/сек
Ширина: 720 пикс.
Высота: 576 пикс.
Соотношение сторон: 4:3
Частота кадров: 25,000 кадр/сек
Стандарт вещания: PAL
Цветовое пространство: YUV
Подвыборка цветности: 4:2:0
Битовая глубина: 8 бит
Тип развёртки: Чересстрочная
Порядок развёртки: Нижнее поле первое
Метод сжатия: С потерями
Бит/(Пиксели*Кадры): 0.382
Размер потока: 860 Мбайт (88%)

Аудио
Идентификатор: 128 (0x80)
Формат: AC-3
Формат/Информация: Audio Coding 3
Расширение режима: CM (complete main)
Вид битрейта: Постоянный
Битрейт: 448 Кбит/сек
Канал(ы): 2 канала(ов)
Расположение каналов: Front: L R
Частота: 48,0 КГц
Битовая глубина: 16 бит
Метод сжатия: С потерями
Размер потока: 97,2 Мбайт (10%)










Поделиться:




реклама партнёра


Вернуться к началу
 Профиль  
 
   Похожие торренты   Автор   Торрент   Размер 
В этой теме нет новых непрочитанных сообщений. Chris Norman - Crossover (2015. Pop-Rock, Soft-Rock ) MP3 320 kbps

Aleksandr.ru

427 | 13

115.75 МБ

В этой теме нет новых непрочитанных сообщений. Chris Norman - 100 Best Hits [1978-2013, Rock, Pop, MP3]

PriZraK

41 | 7

943.95 МБ

В этой теме нет новых непрочитанных сообщений. Norman Greenbaum - Spirit In The Sky: The Best Of Norman Greenbaum [2009, Psychedelic Folk-Rock, Country, MP3]

PriZraK

6 | 7

179.36 МБ

В этой теме нет новых непрочитанных сообщений. VA - 100 Hits: Rock Show. Classic Rock of the 60s & 70s [2004, Rock, Blues, Ballads, Rock'N'Roll, MP3]

PriZraK

17 | 1

496.06 МБ

В этой теме нет новых непрочитанных сообщений. Gordon Jackson - Thinking Back (Remastered) [2005, Rock, Folk Rock, Jazz Rock, Psychedelic Rock, MP3]

PriZraK

0 | 1

145.86 МБ

В этой теме нет новых непрочитанных сообщений. The Australian Pink Floyd Show - Exposed in the Light [2012, Progressive Rock, Psychedelic Rock, MP3]

PriZraK

0 | 6

180.9 МБ

В этой теме нет новых непрочитанных сообщений. Chris Laubis - Black Cat Xing [2013, Hard Rock,Classic Rock, MP3]

PriZraK

0 | 1

84.04 МБ


Начать новую тему Ответить на тему  [ 1 сообщение ] 




Для Мосгорсуда, Роскомнадзора и рекламодателей:: mosgorsud-torrent[собачка]yandex.ru