Торрент файл
скачать торрент магнет ссылка Добавлен: 08 янв 2012, 12:57
Размер: 2.07 ГБ
Сидеров: 6
Личеров: 3
Автор

СообщениеДобавлено: 08 янв 2012, 12:57 

Не в сети
Зам. Админа
Аватара пользователя
Дата регистрации:
02 дек 2010, 12:39
Спасибо: 12461 / 214
Сообщения: 27968
Colonia - Videography 1997-2006

Формат: DVD5, DVD Video, MPEG2, MPEG-AUDIO
Название: Videography 1997-2006
Жанр: Eurodance
Продолжительность: 01:01:39
Год выпуска: 2010

Видео: 720x576 (PAL 4:3), 25 fps, MPEG-2, ~4380 kbps avg, 0.422 bit/pixel
Аудио: 48 kHz, MPEG Layer 2, 2 ch, 256.00 kbps avg

Доп. информация: Сборка клипов Югославской группы выдержана в лучшем стиле Eurodance и превосходит остальные Европейские групы. Качественная ритмичная музыка в сочетании с приятным женским голосом и мужским бек-вокалом будет приятна всем любителям поп музыки.
01 C'est La Vie
02 Na Tvojoj Strani Postelje
03 Najbolje Od Svega
04 Nema Nade
05 Njeno Ime Ne Zovi U Snu
06 Oduzimas Mi Dah
07 Рlamen Od Ljubavi
08 Sve Око Menе Je Grijeh
09 Svijet Voti Pobjednike
10 Svjetla Grade
11 Tako Sexy
12 Ti
13 Za Tvoje Snene Oci
14 Fjaka
15 Pogledom Me Skini
16 Red Light Zone

Общее
Формат: MPEG-PS
Общий поток: 4719 Кбит/сек

Видео
Идентификатор: 224 (0xE0)
Формат: MPEG Video
Версия формата: Version 2
Профиль формата: Main@Main
Параметр BVOP формата: Да
Параметр матрицы формата: По умолчанию
Параметры GOP формата: M=3, N=12
Вид битрейта: Переменный
Битрейт: 4380 Кбит/сек
Ширина: 720 пикс.
Высота: 576 пикс.
Соотношение сторон: 4:3
Частота кадров: 25,000 кадр/сек
Стандарт вещания: PAL
Цветовое пространство: YUV
Подвыборка цветности: 4:2:0
Битовая глубина: 8 бит
Тип развёртки: Чересстрочная
Порядок развёртки: Верхнее поле первое
Метод сжатия: С потерями
Бит/(Пиксели*Кадры): 0.422
Размер потока: 38,8 Мбайт (92%)

Аудио
Идентификатор: 192 (0xC0)
Формат: MPEG Audio
Версия формата: Version 1
Профиль формата: Layer 2
Вид битрейта: Постоянный
Битрейт: 256 Кбит/сек
Канал(ы): 2 канала(ов)
Частота: 48,0 КГц
Метод сжатия: С потерями
Задержка видео: -264 мс.
Размер потока: 2,28 Мбайт (5%)










Поделиться:




реклама партнёра


Вернуться к началу
 Профиль  
 
   Похожие торренты   Автор   Торрент   Размер 
В этой теме нет новых непрочитанных сообщений. Вредитель / The Pest [комедия, 1997] DVD5, Mvo+Sub

salma3

10 | 3

3.93 ГБ

В этой теме нет новых непрочитанных сообщений. Как убить женушку / Tout Doit Disparaitre [комедия, 1997] DVD5, Mvo

salma3

0 | 4

3.85 ГБ

В этой теме нет новых непрочитанных сообщений. Танцовщица / Whirlygirl [драма, мелодрама, 2006] DVD5, Dvo+Sub

salma3

25 | 4

4.33 ГБ

В этой теме нет новых непрочитанных сообщений. Мирин / Суровый город / Mýrin / Jar City [Триллер, 2006] DVD5, Avo

salma3

1 | 3

4.24 ГБ

В этой теме нет новых непрочитанных сообщений. Последний танец / One Last Dance [боевик, мелодрама, комедия, криминал, 2006] DVD5, Mvo+Sub

salma3

34 | 4

4.02 ГБ

В этой теме нет новых непрочитанных сообщений. Прощай любимая / Arrivederci amore, ciao [триллер, драма, криминал, 2006] DVD5, Dvo

salma3

6 | 3

4.27 ГБ

В этой теме нет новых непрочитанных сообщений. Ну погоди! [01-25 из 25] (Вячеслав Котёночкин, Юрий Бутырин, Владимир Тарасов...) [1969-2006, мультфильм, комедия, семейный, приключения, DVD5]

Nickolas3435

696 | 58

4.36 ГБ


Начать новую тему Ответить на тему  [ 1 сообщение ] 




Для Мосгорсуда, Роскомнадзора и рекламодателей:: mosgorsud-torrent[собачка]yandex.ru