Торрент файл
скачать торрент магнет ссылка Добавлен: 08 янв 2012, 12:55
Размер: 3.52 ГБ
Сидеров: 0
Личеров: 4
Автор

СообщениеДобавлено: 08 янв 2012, 12:55 

Не в сети
Зам. Админа
Аватара пользователя
Дата регистрации:
02 дек 2010, 12:39
Спасибо: 12461 / 214
Сообщения: 27968
VA - The History of Eurodance Vol.4

Формат: DVD5, DVD Video, MPEG2, AC3
Песня: The History of Eurodance Vol.4
Жанр: Eurodance
Продолжительность: 01:23:09
Год выпуска: 2010

Видео: 720x576 (PAL 4:3), 25 fps, MPEG-2, ~28,7 Mbps avg, 2.771 bit/pixel
Аудио: 48 kHz, AC-3, 2 ch, 320.00 kbps avg

Доп. информация: Евродэнс (Eurodance, от european — европейский и dance — танцевальный) — собирательный термин для направления европейской электронной танцевальной музыки, появившегося в начале 1990-х годов и имевшем пик популярности в начале—середине 90-х. В наше время популярность этого направления (а не стиля как такового) значительно снизилась. Сочетает в себе элементы Техно, хаус, итало-диско, хай-энерджи, синтипопа и иногда хип-хопа. Включает в себя множество относительно самостоятельных направлений музыки. Главными "поставщиками" евродэнс-звезд были такие страны как: Германия, Швеция и Нидерланды.
Вся сборка состоит из 5 DVD дисков.


1. 2 Unlimited - Tribal Dance
2. Ace Of Base - All That She Wants
3. Aqua - Barbie Girl
4. Bomfunk MCs - Freestyler
5. Centory - Point Of No Return
6. Corona - Baby Baby
7. Dr. Alban - Look Whos Talking
8. E-Type - Here I Go Again
9. General Base - Base Of Love
10. KLF - Last Train To Trancentral
11. La Bouche - Be My Lover
12. Magic Affair - Omen III
13. Mr President - Coco Jamboo
14. N-Trance - Forever
15. Paradisio - Bailando
16. Pharao - I Show You Secret
17. Rednex - Cotton Eye Joe
18. Reel 2 Real - I Like To Move It
19. Scatman John - Scatman
20. Soundlovers - Run Away
21. Vengaboys - Boom, Boom, Boom, Boom!
22. Zhi-Vago - Celebrate The Love

Общее
Формат: MPEG-PS
Общий поток: 29,6 Мбит/сек

Видео
Идентификатор: 224 (0xE0)
Формат: MPEG Video
Версия формата: Version 2
Профиль формата: Main@Main
Параметр BVOP формата: Да
Параметр матрицы формата: По умолчанию
Параметры GOP формата: M=3, N=16
Вид битрейта: Переменный
Битрейт: 28,7 Мбит/сек
Номинальный битрейт: 8300 Кбит/сек
Ширина: 720 пикс.
Высота: 576 пикс.
Соотношение сторон: 4:3
Частота кадров: 25,000 кадр/сек
Стандарт вещания: PAL
Цветовое пространство: YUV
Подвыборка цветности: 4:2:0
Битовая глубина: 8 бит
Тип развёртки: Прогрессивная
Порядок развёртки: Нижнее поле первое
Метод сжатия: С потерями
Бит/(Пиксели*Кадры): 2.771
Размер потока: 502 Мбайт (97%)

Аудио
Идентификатор: 128 (0x80)
Формат: AC-3
Формат/Информация: Audio Coding 3
Расширение режима: CM (complete main)
Вид битрейта: Постоянный
Битрейт: 320 Кбит/сек
Канал(ы): 2 канала(ов)
Расположение каналов: Front: L R
Частота: 48,0 КГц
Битовая глубина: 16 бит
Метод сжатия: С потерями
Задержка видео: -192 мс.
Размер потока: 5,59 Мбайт (1%)










Поделиться:




реклама партнёра


Вернуться к началу
 Профиль  
 
   Похожие торренты   Автор   Торрент   Размер 
В этой теме нет новых непрочитанных сообщений. DJ Bobo - Best Of [2014, Eurodance, MP3]

Nickolas3435

150 | 8

168.92 МБ

В этой теме нет новых непрочитанных сообщений. Сборник - Зарубежная Дискотека 90-Х [2014, Pop, Disco, Eurodance, MP3]

Nickolas3435

447 | 10

835.4 МБ

В этой теме нет новых непрочитанных сообщений. Сборник - Лучшие новинки музыки Мая [2015, Pop, Dance, Eurodance, MP3]

Dracon

1049 | 12

516.17 МБ

В этой теме нет новых непрочитанных сообщений. Сборник - Дискотека 80-90 годов по - новому [Часть 4] [2015, Eurodance, Dance, Disco, MP3]

Nickolas3435

251 | 9

615.68 МБ

В этой теме нет новых непрочитанных сообщений. Сборник - Дискотека 80-90 годов по - новому (Зарубежный выпуск - 7 ) [2015, Eurodance, Dance, Disco, MP3]

Nickolas3435

178 | 22

688.23 МБ

В этой теме нет новых непрочитанных сообщений. Сборник - Дискотека 80-90 годов по - новому (Зарубежный выпуск - 8 ) [2015, Eurodance, Dance, Disco, MP3]

Nickolas3435

257 | 15

695.47 МБ

В этой теме нет новых непрочитанных сообщений. Сборник - Дискотека 80-90 х По-Новому Зарубежный выпуск 5 [Eurodance, Dance, Disco 2015] 320 kbps ,MP3

yurban

330 | 11

1.08 ГБ


Начать новую тему Ответить на тему  [ 1 сообщение ] 




Для Мосгорсуда, Роскомнадзора и рекламодателей:: mosgorsud-torrent[собачка]yandex.ru