Торрент файл
скачать торрент магнет ссылка Добавлен: 08 янв 2012, 12:52
Размер: 3.74 ГБ
Сидеров: 1
Личеров: 9
Автор

СообщениеДобавлено: 08 янв 2012, 12:52 

Не в сети
Зам. Админа
Аватара пользователя
Дата регистрации:
02 дек 2010, 12:39
Спасибо: 12461 / 214
Сообщения: 27968
VA - The History of Eurodance Vol.5

Формат: DVD5, DVD Video, MPEG2, AC3
Песня: The History of Eurodance Vol.5
Жанр: Eurodance
Продолжительность: 01:22:26
Год выпуска: 2010

Видео: 720x576 (PAL 4:3), 25 fps, MPEG-2, ~55,9 Mbps avg, 5.391 bit/pixel
Аудио: 48 kHz, AC-3, 2 ch, 320.00 kbps avg

Доп. информация: Евродэнс (Eurodance, от european — европейский и dance — танцевальный) — собирательный термин для направления европейской электронной танцевальной музыки, появившегося в начале 1990-х годов и имевшем пик популярности в начале—середине 90-х. В наше время популярность этого направления (а не стиля как такового) значительно снизилась. Сочетает в себе элементы Техно, хаус, итало-диско, хай-энерджи, синтипопа и иногда хип-хопа. Включает в себя множество относительно самостоятельных направлений музыки. Главными "поставщиками" евродэнс-звезд были такие страны как: Германия, Швеция и Нидерланды.
Вся сборка состоит из 5 DVD дисков.

1. Alina - When You Leave (Numa Numa Remix)
2. ATB - 9PM (Till I Come)
3. Baracuda - I Leave The World Today
4. Brooklyn Bounce - Bass Beats And Melody
5. Captain Hollywood - More And More (Recall)
6. Cascada - Dangerous
7. Culture Beat - Mr. Vain
8. DJ Bobo - Pray
9. Eiffel 65 - Move Your Body
10. E-Type - Rain
11. Frisco vs Ice MC - Think About The Way
12. Klubbheads - Hiphopping
13. Magic Affair - Give me all your love
14. Mark Oh - Tears Dont Lie
15. Master Blaster - Hypnotic Tango
16. MC Sar The Real McCoy - Run Away
17. Melodie MC - Dum Da Dum
18. Pandora - Trust me
19. Prodigy - Smack My Bitch Up
20. Robert Miles - Children
21. Scooter - Weekend
22. Zhi-Vago - Dreamer

Общее
Формат: MPEG-PS
Общий поток: 57,4 Мбит/сек

Видео
Идентификатор: 224 (0xE0)
Формат: MPEG Video
Версия формата: Version 2
Профиль формата: Main@Main
Параметр BVOP формата: Да
Параметр матрицы формата: По умолчанию
Параметры GOP формата: M=3, N=15
Вид битрейта: Переменный
Битрейт: 55,9 Мбит/сек
Номинальный битрейт: 6000 Кбит/сек
Ширина: 720 пикс.
Высота: 576 пикс.
Соотношение сторон: 4:3
Частота кадров: 25,000 кадр/сек
Стандарт вещания: PAL
Цветовое пространство: YUV
Подвыборка цветности: 4:2:0
Битовая глубина: 8 бит
Тип развёртки: Чересстрочная
Порядок развёртки: Верхнее поле первое
Метод сжатия: С потерями
Бит/(Пиксели*Кадры): 5.391
Размер потока: 592 Мбайт (97%)

Аудио
Идентификатор: 128 (0x80)
Формат: AC-3
Формат/Информация: Audio Coding 3
Расширение режима: CM (complete main)
Вид битрейта: Постоянный
Битрейт: 320 Кбит/сек
Канал(ы): 2 канала(ов)
Расположение каналов: Front: L R
Частота: 48,0 КГц
Битовая глубина: 16 бит
Метод сжатия: С потерями
Задержка видео: -272 мс.
Размер потока: 3,40 Мбайт (1%)









Поделиться:




реклама партнёра


Вернуться к началу
 Профиль  
 
   Похожие торренты   Автор   Торрент   Размер 
В этой теме нет новых непрочитанных сообщений. DJ Bobo - Best Of [2014, Eurodance, MP3]

Nickolas3435

150 | 8

168.92 МБ

В этой теме нет новых непрочитанных сообщений. Сборник - Зарубежная Дискотека 90-Х [2014, Pop, Disco, Eurodance, MP3]

Nickolas3435

447 | 10

835.4 МБ

В этой теме нет новых непрочитанных сообщений. Сборник - Лучшие новинки музыки Мая [2015, Pop, Dance, Eurodance, MP3]

Dracon

1049 | 12

516.17 МБ

В этой теме нет новых непрочитанных сообщений. Сборник - Дискотека 80-90 годов по - новому [Часть 4] [2015, Eurodance, Dance, Disco, MP3]

Nickolas3435

251 | 9

615.68 МБ

В этой теме нет новых непрочитанных сообщений. Сборник - Дискотека 80-90 годов по - новому (Зарубежный выпуск - 7 ) [2015, Eurodance, Dance, Disco, MP3]

Nickolas3435

178 | 22

688.23 МБ

В этой теме нет новых непрочитанных сообщений. Сборник - Дискотека 80-90 годов по - новому (Зарубежный выпуск - 8 ) [2015, Eurodance, Dance, Disco, MP3]

Nickolas3435

257 | 15

695.47 МБ

В этой теме нет новых непрочитанных сообщений. Сборник - Дискотека 80-90 годов по - новому (Зарубежный выпуск - 2) [2014, Eurodance, Dance, Disco, MP3]

Nickolas3435

751 | 23

629.32 МБ


Начать новую тему Ответить на тему  [ 1 сообщение ] 




Для Мосгорсуда, Роскомнадзора и рекламодателей:: mosgorsud-torrent[собачка]yandex.ru