Торрент файл
скачать торрент магнет ссылка Добавлен: 08 янв 2012, 12:49
Размер: 4.11 ГБ
Сидеров: 0
Личеров: 13
Автор

СообщениеДобавлено: 08 янв 2012, 12:49 

Не в сети
Зам. Админа
Аватара пользователя
Дата регистрации:
02 дек 2010, 12:39
Спасибо: 12458 / 214
Сообщения: 27968
Shakira - MTV Unplugged


Формат: DVD5, DVD Video, MPEG2, AC3/PCM
Песня: MTV Unplugged
Жанр: Pop
Продолжительность: 01:14:22
Год выпуска: 2000

Видео: 720x480 (NTSC 4:3), MPEG-2, ~6294 kbps avg, 0.608 bit/pixel
Аудио 1: 48 kHz, AC-3, 6 ch(Front: L C R, Side: L R, LFE),~448.00 kbps avg
Аудио 2: 48 kHz, PCM, 2 ch, ~1536.00 kbps avg

Доп. информация: Shakira - MTV Unplugged - это альбом популярной певицы Шакиры, состоящий из концертных версий ее песен. Шакира выпустила альбом «MTV Unplugged» в 2000 году. Позже за этот альбом певица удостоилась премии «Грэмми», а также получила некоторую популярность в США. Однако для покорения всего мира необходимо было петь на английском, по этой причине Шакира решила, что ее четвертый альбом будет англоязычным.

Tracks:
01. Octavo Dia
02. Si Te Vas
03. Donde Estan Los Landrones
04. Ciega, Sordomuda
05. Inevitable
06. Moscas En La Casa
07. Estoy Aqui
08. Tu
09. Sombra De Ti
10. No Creo
11. Ojos Asi
Общее
Формат: MPEG-PS
Общий поток: 8446 Кбит/сек

Видео
Идентификатор: 224 (0xE0)
Формат: MPEG Video
Версия формата: Version 2
Профиль формата: Main@Main
Параметр BVOP формата: Да
Параметр матрицы формата: По умолчанию
Параметры GOP формата: M=3, N=15
Вид битрейта: Переменный
Битрейт: 6294 Кбит/сек
Номинальный битрейт: 7000 Кбит/сек
Ширина: 720 пикс.
Высота: 480 пикс.
Соотношение сторон: 4:3
Частота кадров: 29,970 кадр/сек
Стандарт вещания: NTSC
Цветовое пространство: YUV
Подвыборка цветности: 4:2:0
Битовая глубина: 8 бит
Тип развёртки: Чересстрочная
Порядок развёртки: Верхнее поле первое
Метод сжатия: С потерями
Бит/(Пиксели*Кадры): 0.608
Размер потока: 763 Мбайт (75%)

Аудио #1
Идентификатор: 129 (0x81)
Формат: AC-3
Формат/Информация: Audio Coding 3
Расширение режима: CM (complete main)
Вид битрейта: Постоянный
Битрейт: 448 Кбит/сек
Канал(ы): 6 канала(ов)
Расположение каналов: Front: L C R, Side: L R, LFE
Частота: 48,0 КГц
Битовая глубина: 16 бит
Метод сжатия: С потерями
Задержка видео: -66 мс.
Размер потока: 54,3 Мбайт (5%)

Аудио #2
Идентификатор: 160 (0xA0)
Формат: PCM
Параметр Endianness формата: Big
Параметр Sign формата: Signed
Режим смешивания: DVD-Video
Продолжительность: 16 м.
Вид битрейта: Постоянный
Битрейт: 1536 Кбит/сек
Канал(ы): 2 канала(ов)
Расположение каналов: Front: L R
Частота: 48,0 КГц
Битовая глубина: 16 бит
Задержка видео: -66 мс.
Размер потока: 186 Мбайт (18%)














Поделиться:




реклама партнёра


Вернуться к началу
 Профиль  
 
   Похожие торренты   Автор   Торрент   Размер 
В этой теме нет новых непрочитанных сообщений. Nirvana - Unplugged and More [1994, Grunge, MP3]

PriZraK

3 | 3

120.75 МБ

В этой теме нет новых непрочитанных сообщений. 30 Seconds To Mars - MTV Unplugged [EP] [2011, Alternative Rock, MP3]

PriZraK

0 | 2

47.53 МБ

В этой теме нет новых непрочитанных сообщений. Saxon - Unplugged And Strung Up [2013, Heavy Metal, MP3]

PriZraK

0 | 1

159.66 МБ

В этой теме нет новых непрочитанных сообщений. Helix - Smash Hits…Unplugged! [2011, Hard Rock, MP3]

PriZraK

0 | 2

98.26 МБ

В этой теме нет новых непрочитанных сообщений. Devin Townsend - Unplugged [2011, Progressive Rock, Acoustic, MP3]

PriZraK

0 | 1

119.78 МБ

В этой теме нет новых непрочитанных сообщений. Arctic Monkeys - Unplugged Acoustic Session [2009, Indie, MP3]

PriZraK

0 | 1

64.15 МБ

В этой теме нет новых непрочитанных сообщений. Scorpions - MTV Unplugged: Live In Athens (2CD) [2013, Hard Rock, MP3]

PriZraK

33 | 3

262.02 МБ


Начать новую тему Ответить на тему  [ 1 сообщение ] 




Для Мосгорсуда, Роскомнадзора и рекламодателей:: mosgorsud-torrent[собачка]yandex.ru