Торрент файл
скачать торрент магнет ссылка Добавлен: 08 янв 2012, 12:42
Размер: 3.04 ГБ
Сидеров: 5
Личеров: 7
Автор

СообщениеДобавлено: 08 янв 2012, 12:42 

Не в сети
Зам. Админа
Аватара пользователя
Дата регистрации:
02 дек 2010, 12:39
Спасибо: 12623 / 214
Сообщения: 28012
VA - Лучшее от Ello Vol.1


Формат: DVD5, DVD Video, MPEG2, AC3
Название: Лучшее от Ello Vol.1
Жанр: Pop, Hip-hop, R'n'B
Продолжительность: 02:01:24
Год выпуска: 2011

Видео: 720х576 (PAL 16:9), 25 fps, MPEG-2, ~3650 kbps avg, 0.352 bit/pixel
Аудио: 48 kHz, AC-3, 2 ch, 192.00 kbps avg

Доп. информация: Материал взят с канала Ello - который представляет в свою очередь новинки как российской так и зарубежной попсы. Отличный профессиональный музыкальный канал и даже стоп кадры на всех видео выставлены очень правильно. Здесь можно увидеть как звезд так и совершенно молодых исполнителей. Предлагаю Вашему вниманию одну из подборок с этого канала.
01 NikitA - Искусаю
02 Serebro - Давай держаться за руки
03 MAX BARSKIH - Теряю тебя
04 Глюкоза - Как в детстве
05 Алисия - Открой мое сердце
06 Градусы - Голая
07 Виа Гра - Сумасшедший
08 Ольга Кормухина - Ждать
09 Все включено - Девочка Столичная
10 DJ Piligrim - Да я...
11 Китай - Моё сердце
12 Юля Савичева - Скажи мне, что такое любовь
13 Blue Marine - Computer Love
14 Винтаж - Ева
15 Слава и Стас Пьеха - Я и Ты
16 МакSим - Как летать
17 Настя Задорожная - Беги
18 Инь-Ян Камикадзе
19 Потап и Вера Брежнева - Пронто
20 Анжелика Варум - Если он уйдет
21 St1m - Фотоальбом
22 Банд'Эрос - Каламбия Пикчерз не представляет
23 Вера Брежнева - Любовь спасет мир
24 IKA - Выбирай
25 Ёлка - Movie Star
26 Настя Задорожная - Сердце пополам
27 Irene Nelson - When apples fall to the sky
28 Нюша - Выбирать чудо
29 Reflex - Встречай новый день
30 Настя Задорожная - Буду
31 Indigo - Я тебя прошу...
32 НеСтрелки - Вова, вернись

Общее
Формат: MPEG-PS
Общий поток: 3920 Кбит/сек

Видео
Идентификатор: 224 (0xE0)
Формат: MPEG Video
Версия формата: Version 2
Профиль формата: Main@Main
Параметр BVOP формата: Да
Параметр матрицы формата: По умолчанию
Параметры GOP формата: M=3, N=13
Вид битрейта: Переменный
Битрейт: 3650 Кбит/сек
Номинальный битрейт: 9008 Кбит/сек
Ширина: 720 пикс.
Высота: 576 пикс.
Соотношение сторон: 4:3
Частота кадров: 25,000 кадр/сек
Стандарт вещания: PAL
Цветовое пространство: YUV
Подвыборка цветности: 4:2:0
Битовая глубина: 8 бит
Тип развёртки: Прогрессивная
Метод сжатия: С потерями
Бит/(Пиксели*Кадры): 0.352
Размер потока: 953 Мбайт (93%)

Аудио
Идентификатор: 128 (0x80)
Формат: AC-3
Формат/Информация: Audio Coding 3
Расширение режима: CM (complete main)
Вид битрейта: Постоянный
Битрейт: 192 Кбит/сек
Канал(ы): 2 канала(ов)
Расположение каналов: Front: L R
Частота: 48,0 КГц
Битовая глубина: 16 бит
Метод сжатия: С потерями
Размер потока: 50,1 Мбайт (5%)












Поделиться:




реклама партнёра


Вернуться к началу
 Профиль  
 
   Похожие торренты   Автор   Торрент   Размер 
В этой теме нет новых непрочитанных сообщений. Военные игры / War Games: At the End of the Day [Триллер, боевик, ужасы, 2011] DVD5, Mvo

salma3

15 | 11

4.35 ГБ

В этой теме нет новых непрочитанных сообщений. Из 13 в 30 / 13 Going on 30 [Комедия, мелодрама, 2004] DVD5, Mvo

salma3

7 | 0

4.33 ГБ

В этой теме нет новых непрочитанных сообщений. Я прихожу с дождем / I Come with the Rain (2008) DVD5 | P

salma3

38 | 21

4.24 ГБ

В этой теме нет новых непрочитанных сообщений. Авантюристы [приключения, 2014] DVD5 [Лицензия]

Dracon

231 | 18

4.02 ГБ

В этой теме нет новых непрочитанных сообщений. Горько! 2 [комедия, 2014] DVD5 [Сжатый]

Dracon

46 | 4

4.36 ГБ

В этой теме нет новых непрочитанных сообщений. Шантаж / BlackMale [триллер, 2000] DVD5, Mvo

salma3

41 | 8

3.7 ГБ

В этой теме нет новых непрочитанных сообщений. Бармен ( комедия, фэнтези, 2015) DVD5

marya111

0 | 4

4.37 ГБ


Начать новую тему Ответить на тему  [ 1 сообщение ] 




Для Мосгорсуда, Роскомнадзора и рекламодателей:: mosgorsud-torrent[собачка]yandex.ru