Торрент файл
скачать торрент магнет ссылка Добавлен: 08 янв 2012, 12:35
Размер: 253.8 МБ
Сидеров: 2
Личеров: 5
Автор

СообщениеДобавлено: 08 янв 2012, 12:35 

Не в сети
Зам. Админа
Аватара пользователя
Дата регистрации:
02 дек 2010, 12:39
Спасибо: 12623 / 214
Сообщения: 28012
ДДТ - Не стреляй!


Формат: DVD5, VOB, MPEG2, DTS 2.1
Песня: Не стреляй!
Жанр: Rock
Продолжительность: 00:04:18
Год выпуска: 1996

Видео: 720x480 (1.50:1) NTSC 16:9 / 29.970 fps ~ 6 383 kbps avg 0.62 bit/pixel
Аудио#1: 96 kHz/24 bit DTS 2.1 ch. 1510 kbps. avg

Доп. информация:







[b]

General
Complete name: C:\DDT\VIDEO_TS\VTS_01_1.VOB
Format: MPEG-PS
File size: 254 MiB
Duration: 4mn 18s
Overall bit rate: 8 219 Kbps

Video
ID: 224 (0xE0)
Format: MPEG Video
Format version: Version 2
Format profile: Main@Main
Format settings, BVOP: Yes
Format settings, Matrix: Default
Format_Settings_GOP: M=3, N=15
Duration: 4mn 18s
Bit rate mode: Variable
Bit rate: 6 383 Kbps
Nominal bit rate: 8 500 Kbps
Width: 720 pixels
Height: 480 pixels
Display aspect ratio: 16:9
Frame rate: 29.970 fps
Standard: NTSC
Resolution: 8 bits
Colorimetry: 4:2:0
Scan type: Interlaced
Scan order: Top Field First
Bits/(Pixel*Frame): 0.616
Stream size: 197 MiB (78%)

Audio
ID: 136 (0x88)
Format: DTS
Format/Info: Digital Theater Systems
Format profile: 96/24
Duration: 4mn 18s
Bit rate mode: Constant
Bit rate: 1 510 Kbps
Channel(s): 3 channels
Channel positions: Front: L R, LFE
Sampling rate: 96.0 KHz
Resolution: 24 bits
Stream size: 46.5 MiB (18%)

Menu


[b]By Archybaldo Edition for
__
Поделиться:




реклама партнёра


Вернуться к началу
 Профиль  
 
   Похожие торренты   Автор   Торрент   Размер 
В этой теме нет новых непрочитанных сообщений. Скала / The Rock [боевик, триллер, приключения, 1996] HDRip-AVC, Dub

salma3

41 | 9

746.01 МБ

В этой теме нет новых непрочитанных сообщений. Скала / The Rock [Боевик, Триллер, Приключения, 1996] BDRemux, Dub+Avo

salma3

6 | 3

21.72 ГБ

В этой теме нет новых непрочитанных сообщений. Скала / The Rock [Боевик, триллер, приключения, 1996] BDRemux 1080p, Dub

salma3

10 | 37

35.34 ГБ

В этой теме нет новых непрочитанных сообщений. Сборник - Русский Рок Золотой [2014, Rock, Classic Rock, Soft Rock, Hard Rock, MP3]

Nickolas3435

457 | 26

935.39 МБ

В этой теме нет новых непрочитанных сообщений. Kid Rock - First Kiss [Deluxe Edition] (Rock, Country, Southern Rock. 2015) MP3 320 kbps

Aleksandr.ru

26 | 4

114.38 МБ

В этой теме нет новых непрочитанных сообщений. Сборник - The Original Rock Meets Classic [2 CD] [2014, Rock, Hard Rock, FLAC]

Nickolas3435

185 | 11

1.05 ГБ

В этой теме нет новых непрочитанных сообщений. Mark Knopfler - Tracker (Rock, Blues Rock, Folk Rock. 2015) MP3

Aleksandr.ru

147 | 5

139.55 МБ


Начать новую тему Ответить на тему  [ 1 сообщение ] 




Для Мосгорсуда, Роскомнадзора и рекламодателей:: mosgorsud-torrent[собачка]yandex.ru