Торрент файл
скачать торрент магнет ссылка Добавлен: 08 янв 2012, 12:35
Размер: 253.8 МБ
Сидеров: 2
Личеров: 5
Автор

СообщениеДобавлено: 08 янв 2012, 12:35 

Не в сети
Зам. Админа
Аватара пользователя
Дата регистрации:
02 дек 2010, 12:39
Спасибо: 12461 / 214
Сообщения: 27968
ДДТ - Не стреляй!


Формат: DVD5, VOB, MPEG2, DTS 2.1
Песня: Не стреляй!
Жанр: Rock
Продолжительность: 00:04:18
Год выпуска: 1996

Видео: 720x480 (1.50:1) NTSC 16:9 / 29.970 fps ~ 6 383 kbps avg 0.62 bit/pixel
Аудио#1: 96 kHz/24 bit DTS 2.1 ch. 1510 kbps. avg

Доп. информация:







[b]

General
Complete name: C:\DDT\VIDEO_TS\VTS_01_1.VOB
Format: MPEG-PS
File size: 254 MiB
Duration: 4mn 18s
Overall bit rate: 8 219 Kbps

Video
ID: 224 (0xE0)
Format: MPEG Video
Format version: Version 2
Format profile: Main@Main
Format settings, BVOP: Yes
Format settings, Matrix: Default
Format_Settings_GOP: M=3, N=15
Duration: 4mn 18s
Bit rate mode: Variable
Bit rate: 6 383 Kbps
Nominal bit rate: 8 500 Kbps
Width: 720 pixels
Height: 480 pixels
Display aspect ratio: 16:9
Frame rate: 29.970 fps
Standard: NTSC
Resolution: 8 bits
Colorimetry: 4:2:0
Scan type: Interlaced
Scan order: Top Field First
Bits/(Pixel*Frame): 0.616
Stream size: 197 MiB (78%)

Audio
ID: 136 (0x88)
Format: DTS
Format/Info: Digital Theater Systems
Format profile: 96/24
Duration: 4mn 18s
Bit rate mode: Constant
Bit rate: 1 510 Kbps
Channel(s): 3 channels
Channel positions: Front: L R, LFE
Sampling rate: 96.0 KHz
Resolution: 24 bits
Stream size: 46.5 MiB (18%)

Menu


[b]By Archybaldo Edition for
__
Поделиться:




реклама партнёра


Вернуться к началу
 Профиль  
 
   Похожие торренты   Автор   Торрент   Размер 
В этой теме нет новых непрочитанных сообщений. Ключи - Стреляй не целясь [2011, Rock, MP3]

PriZraK

0 | 2

96.92 МБ

В этой теме нет новых непрочитанных сообщений. The Teens - Greatest Hits 1976-1996 (3 CD) [2011, Rock, Pop-Rock, Glam-Rock, MP3]

PriZraK

0 | 3

557.49 МБ

В этой теме нет новых непрочитанных сообщений. VA - A Tribute To Creedence Clearwater Revival [1996, Classic Rock, Rock 'n' Roll, Rock, MP3]

PriZraK

6 | 3

132.35 МБ

В этой теме нет новых непрочитанных сообщений. Неаполь, стреляй! / Napoli spara! [Боевик, драма, 1977] DVDRip, Avo

salma3

11 | 3

1.37 ГБ

В этой теме нет новых непрочитанных сообщений. Faust - Excerpts From The Rock Ballet [1996, Melodic Rock, Progressive, MP3]

PriZraK

0 | 1

103.52 МБ

В этой теме нет новых непрочитанных сообщений. The Wallflowers - Bringing Down The Horse [1996, Rock, Alternative Rock, MP3]

PriZraK

0 | 1

119.68 МБ

В этой теме нет новых непрочитанных сообщений. VA - Guitar Rock (Time Life Music - 3CD) [1995-1996, Hard Rock, Heavy Metal, Glam Metal, MP3]

PriZraK

0 | 2

495.33 МБ


Начать новую тему Ответить на тему  [ 1 сообщение ] 




Для Мосгорсуда, Роскомнадзора и рекламодателей:: mosgorsud-torrent[собачка]yandex.ru