Торрент файл
скачать торрент магнет ссылка Добавлен: 08 янв 2012, 12:30
Размер: 2.88 ГБ
Сидеров: 1
Личеров: 7
Автор

СообщениеДобавлено: 08 янв 2012, 12:30 

Не в сети
Зам. Админа
Аватара пользователя
Дата регистрации:
02 дек 2010, 12:39
Спасибо: 12461 / 214
Сообщения: 27968
VA - Лучшее от Ello Vol.2


Формат: DVD5, DVD Video, MPEG2, AC3
Песня: Лучшее от Ello Vol.2
Жанр: Pop, Hip-hop, R'n'B
Продолжительность: 02:00:48
Год выпуска: 2011

Видео: 720х576 (PAL 16:9), 25 fps, MPEG-2, ~2925kbps avg, 0.282 bit/pixel
Аудио: 48 kHz, AC-3, 2 ch, 192.00 kbps avg

Доп. информация: Материал взят с канала Ello - который представляет в свою очередь новинки как российской так и зарубежной попсы. Отличный профессиональный музыкальный канал и даже стоп кадры на всех видео выставлены очень правильно. Здесь можно увидеть как звезд так и совершенно молодых исполнителей. Предлагаю Вашему вниманию вторую подбороку с этого канала.

01 Ани Лорак - Для тебя
02 Нола - Формат
03 LEO.K - Студентка
04 Потап и его команда - Море пенится
05 Кристина - Скажу тебе да
06 Пыльца - Две любви
07 Rene - Лететь
08 Ри - Холодно
09 Виа Гра - Я не боюсь
10 Джиган feat. Юлия Савичева - Отпусти
11 Точка G - Цветная любовь
12 В. Меладзе и Е. Боярская - Небеса
13 LOBODA - Революция
14 Фристайл - Кораблик любви
15 Потап и Настя - Чумачечая Весна
16 K. Melody - Подари любовь
17 Маняша - Мишки
18 Таня Терёшина - Радио ГаГаГа
19 Слава - Люблю или ненавижу
20 Винтаж - Роман
21 MAX BARSKIH - Белый ворон
22 Настя Задорожная - Буду (Ремикс)
23 Согдиана - Вспоминай меня
24 Ирина Ортман - Что-то в тебе есть
25 Эд Шульжевский - My baby
26 Банд'Эрос - Наоми я бы Кэмбел Banderos
27 Тамерлан и Алена Омаргалиева - Все будет хорошо
28 Стас Пьеха и Павла - Новогодняя
29 Uma2rmaH - Оля из сети
30 VESNA - Разве я могу
31 Duende - Осенняя песня
32 Челси и Филипп Киркоров - Любовь всегда права

Общее
Формат: MPEG-PS
Общий поток: 3181 Кбит/сек

Видео
Идентификатор: 224 (0xE0)
Формат: MPEG Video
Версия формата: Version 2
Профиль формата: Main@Main
Параметр BVOP формата: Да
Параметр матрицы формата: По умолчанию
Параметры GOP формата: M=3, N=13
Вид битрейта: Переменный
Битрейт: 2925 Кбит/сек
Номинальный битрейт: 9008 Кбит/сек
Ширина: 720 пикс.
Высота: 576 пикс.
Соотношение сторон: 4:3
Частота кадров: 25,000 кадр/сек
Стандарт вещания: PAL
Цветовое пространство: YUV
Подвыборка цветности: 4:2:0
Битовая глубина: 8 бит
Тип развёртки: Прогрессивная
Метод сжатия: С потерями
Бит/(Пиксели*Кадры): 0.282
Размер потока: 942 Мбайт (92%)

Аудио
Идентификатор: 128 (0x80)
Формат: AC-3
Формат/Информация: Audio Coding 3
Расширение режима: CM (complete main)
Вид битрейта: Постоянный
Битрейт: 192 Кбит/сек
Канал(ы): 2 канала(ов)
Расположение каналов: Front: L R
Частота: 48,0 КГц
Битовая глубина: 16 бит
Метод сжатия: С потерями
Размер потока: 61,8 Мбайт (6%)












Поделиться:




реклама партнёра


Вернуться к началу
 Профиль  
 
   Похожие торренты   Автор   Торрент   Размер 
В этой теме нет новых непрочитанных сообщений. Освенцим / Auschwitz [драма, 2011] DVD5, Mvo+Sub [лицензия]

Dracon

57 | 7

3.77 ГБ

В этой теме нет новых непрочитанных сообщений. Уловка .44 / Catch .44 [триллер, драма, криминал, 2011] DVD5, Mvo+Sub

salma3

10 | 8

4.37 ГБ

В этой теме нет новых непрочитанных сообщений. Многоэтажка / Небоскреб смерти / Tower Block [триллер, 2011] DVD5, Mvo+Sub

salma3

9 | 7

4.32 ГБ

В этой теме нет новых непрочитанных сообщений. Маленький убийца / Little Murder [триллер, драма, 2011] DVD5, Mvo [лицензия]

salma3

0 | 2

3.93 ГБ

В этой теме нет новых непрочитанных сообщений. Военные игры / War Games: At the End of the Day [Триллер, боевик, ужасы, 2011] DVD5, Mvo

salma3

15 | 11

4.35 ГБ

В этой теме нет новых непрочитанных сообщений. 12 Рождественских желаний / 12 Wishes of Christmas [фэнтези, комедия, 2011] DVD5, Mvo [лицензия]

salma3

48 | 7

3.92 ГБ

В этой теме нет новых непрочитанных сообщений. Последний час Земли / Earth's Final Hours [Фантастика, 2011] DVD5, Mvo [Лицензия]

salma3

41 | 14

4.01 ГБ


Начать новую тему Ответить на тему  [ 1 сообщение ] 




Для Мосгорсуда, Роскомнадзора и рекламодателей:: mosgorsud-torrent[собачка]yandex.ru