Торрент файл
скачать торрент магнет ссылка Добавлен: 08 янв 2012, 12:29
Размер: 10.94 ГБ
Сидеров: 0
Личеров: 6
Автор

СообщениеДобавлено: 08 янв 2012, 12:29 

Не в сети
Зам. Админа
Аватара пользователя
Дата регистрации:
02 дек 2010, 12:39
Спасибо: 12601 / 214
Сообщения: 28049
Animusic HD

Формат: BDRemux, MKV, H.264, DTS-MA
Исполнитель: Animusic
Жанр: computer animated music
Продолжительность: 41:57
Год выпуска: 2010

Видео: 1920x1080 (16:9), 29.970 fps, MPEG-4 AVC (x264), High@L4.1, ~35.1 Mbps avg, 0.566 bit/pixel
Аудио: 48 kHz, DTS-HD MA 5.1, 6ch,1561 kbps

Доп.информация:

1. Pipe Dream 3:23
2. Starship Groove 4:05
3. Pogo Sticks 3:20
4. Resonant Chamber 4:30
5. Cathedral Pictures 6:07
6. Pipe Dream 2 3:52
7. Fiber Bundles 5:16
8. Gyro Drums 4:10
9. Heavy Light 7:15




01 - Pipe Dream:

Общее
Уникальный идентификатор: 217705646686395312457878923668732676993 (0xA3C8951844A17E859B983E5D43028B81)
Полное имя: S:\DOWNLOAD\Animusic\01 - Pipe Dream.mkv
Формат: Matroska
Размер файла: 909 Мбайт
Продолжительность: 3 м. 23 с.
Общий поток: 37,5 Мбит/сек
Дата кодирования: UTC 2011-01-29 21:27:12
Программа кодирования: mkvmerge v4.4.0 ('Die Wiederkehr') built on Oct 31 2010 21:52:48
Библиотека кодирования: libebml v1.0.0 + libmatroska v1.0.0

Видео
Идентификатор: 1
Формат: AVC
Формат/Информация: Advanced Video Codec
Профиль формата: High@L4.1
Параметр CABAC формата: Да
Параметр ReFrames формата: 4 кадра
Параметры GOP формата: M=2, N=32
Идентификатор кодека: V_MPEG4/ISO/AVC
Продолжительность: 3 м. 23 с.
Вид битрейта: Переменный
Битрейт: 35,1 Мбит/сек
Максимальный битрейт: 38,0 Мбит/сек
Ширина: 1920 пикс.
Высота: 1080 пикс.
Соотношение сторон: 16:9
Частота кадров: 29,970 кадр/сек
Цветовое пространство: YUV
Подвыборка цветности: 4:2:0
Битовая глубина: 8 бит
Тип развёртки: MBAFF
Бит/(Пиксели*Кадры): 0.566
Размер потока: 853 Мбайт (94%)
Основные цвета: BT.709-5, BT.1361, IEC 61966-2-4, SMPTE RP177
Характеристики трансфера: BT.709-5, BT.1361
Коэффициенты матрицы: BT.709-5, BT.1361, IEC 61966-2-4 709, SMPTE RP177

Аудио
Идентификатор: 2
Формат: DTS
Формат/Информация: Digital Theater Systems
Профиль формата: MA / Core
Идентификатор кодека: A_DTS
Продолжительность: 3 м. 23 с.
Вид битрейта: Переменный
Битрейт: 1561 Кбит/сек / 1510 Кбит/сек
Каналы: 6 каналов
Расположение каналов: Front: L C R, Side: L R, LFE
Частота: 48,0 КГц
Битовая глубина: 24 бит
Метод сжатия: Без потерь / Lossy

02 - Starship Groove:


Общее
Уникальный идентификатор: 180380400261260123759705373749754035853 (0x87B4005D58FD76609B6BC1F378557E8D)
Полное имя: S:\DOWNLOAD\animusic\02 - Starship Groove.mkv
Формат: Matroska
Размер файла: 1,07 Гбайт
Продолжительность: 4 м. 5 с.
Общий поток: 37,4 Мбит/сек
Дата кодирования: UTC 2011-01-29 21:43:21
Программа кодирования: mkvmerge v4.4.0 ('Die Wiederkehr') built on Oct 31 2010 21:52:48
Библиотека кодирования: libebml v1.0.0 + libmatroska v1.0.0

Видео
Идентификатор: 1
Формат: AVC
Формат/Информация: Advanced Video Codec
Профиль формата: High@L4.1
Параметр CABAC формата: Да
Параметр ReFrames формата: 4 кадра
Параметры GOP формата: M=3, N=32
Идентификатор кодека: V_MPEG4/ISO/AVC
Продолжительность: 4 м. 5 с.
Вид битрейта: Переменный
Битрейт: 35,1 Мбит/сек
Максимальный битрейт: 38,0 Мбит/сек
Ширина: 1920 пикс.
Высота: 1080 пикс.
Соотношение сторон: 16:9
Частота кадров: 29,970 кадр/сек
Цветовое пространство: YUV
Подвыборка цветности: 4:2:0
Битовая глубина: 8 бит
Тип развёртки: MBAFF
Бит/(Пиксели*Кадры): 0.565
Размер потока: 1,00 Гбайт (94%)
Основные цвета: BT.709-5, BT.1361, IEC 61966-2-4, SMPTE RP177
Характеристики трансфера: BT.709-5, BT.1361
Коэффициенты матрицы: BT.709-5, BT.1361, IEC 61966-2-4 709, SMPTE RP177

Аудио
Идентификатор: 2
Формат: DTS
Формат/Информация: Digital Theater Systems
Профиль формата: MA / Core
Идентификатор кодека: A_DTS
Продолжительность: 4 м. 5 с.
Вид битрейта: Переменный
Битрейт: 1561 Кбит/сек / 1510 Кбит/сек
Каналы: 6 каналов
Расположение каналов: Front: L C R, Side: L R, LFE
Частота: 48,0 КГц
Битовая глубина: 24 бит
Метод сжатия: Без потерь / Lossy

03 - Pogo Sticks:


Общее
Уникальный идентификатор: 193437288259359408958293015440448470627 (0x9186AAA51DCD811FACFBC12A4FDABE63)
Полное имя: S:\DOWNLOAD\animusic\03 - Pogo Sticks.mkv
Формат: Matroska
Размер файла: 902 Мбайт
Продолжительность: 3 м. 20 с.
Общий поток: 37,8 Мбит/сек
Дата кодирования: UTC 2011-01-29 21:53:43
Программа кодирования: mkvmerge v4.4.0 ('Die Wiederkehr') built on Oct 31 2010 21:52:48
Библиотека кодирования: libebml v1.0.0 + libmatroska v1.0.0

Видео
Идентификатор: 1
Формат: AVC
Формат/Информация: Advanced Video Codec
Профиль формата: High@L4.1
Параметр CABAC формата: Да
Параметр ReFrames формата: 4 кадра
Параметры GOP формата: M=1, N=32
Идентификатор кодека: V_MPEG4/ISO/AVC
Продолжительность: 3 м. 20 с.
Вид битрейта: Переменный
Битрейт: 35,5 Мбит/сек
Максимальный битрейт: 38,0 Мбит/сек
Ширина: 1920 пикс.
Высота: 1080 пикс.
Соотношение сторон: 16:9
Частота кадров: 29,970 кадр/сек
Цветовое пространство: YUV
Подвыборка цветности: 4:2:0
Битовая глубина: 8 бит
Тип развёртки: MBAFF
Бит/(Пиксели*Кадры): 0.571
Размер потока: 847 Мбайт (94%)
Основные цвета: BT.709-5, BT.1361, IEC 61966-2-4, SMPTE RP177
Характеристики трансфера: BT.709-5, BT.1361
Коэффициенты матрицы: BT.709-5, BT.1361, IEC 61966-2-4 709, SMPTE RP177

Аудио
Идентификатор: 2
Формат: DTS
Формат/Информация: Digital Theater Systems
Профиль формата: MA / Core
Идентификатор кодека: A_DTS
Продолжительность: 3 м. 20 с.
Вид битрейта: Переменный
Битрейт: 1561 Кбит/сек / 1510 Кбит/сек
Каналы: 6 каналов
Расположение каналов: Front: L C R, Side: L R, LFE
Частота: 48,0 КГц
Битовая глубина: 24 бит
Метод сжатия: Без потерь / Lossy

04 - Resonant Chamber:


Общее
Уникальный идентификатор: 228892627312252603012779183373680624925 (0xAC331DD2E11CFB118A88B29DA2AFC51D)
Полное имя: S:\DOWNLOAD\animusic\04 - Resonant Chamber.mkv
Формат: Matroska
Размер файла: 1,15 Гбайт
Продолжительность: 4 м. 30 с.
Общий поток: 36,5 Мбит/сек
Дата кодирования: UTC 2011-01-29 22:00:56
Программа кодирования: mkvmerge v4.4.0 ('Die Wiederkehr') built on Oct 31 2010 21:52:48
Библиотека кодирования: libebml v1.0.0 + libmatroska v1.0.0

Видео
Идентификатор: 1
Формат: AVC
Формат/Информация: Advanced Video Codec
Профиль формата: High@L4.1
Параметр CABAC формата: Да
Параметр ReFrames формата: 4 кадра
Идентификатор кодека: V_MPEG4/ISO/AVC
Продолжительность: 4 м. 30 с.
Вид битрейта: Переменный
Битрейт: 34,2 Мбит/сек
Максимальный битрейт: 38,0 Мбит/сек
Ширина: 1920 пикс.
Высота: 1080 пикс.
Соотношение сторон: 16:9
Частота кадров: 29,970 кадр/сек
Цветовое пространство: YUV
Подвыборка цветности: 4:2:0
Битовая глубина: 8 бит
Тип развёртки: MBAFF
Бит/(Пиксели*Кадры): 0.550
Размер потока: 1,08 Гбайт (94%)
Основные цвета: BT.709-5, BT.1361, IEC 61966-2-4, SMPTE RP177
Характеристики трансфера: BT.709-5, BT.1361
Коэффициенты матрицы: BT.709-5, BT.1361, IEC 61966-2-4 709, SMPTE RP177

Аудио
Идентификатор: 2
Формат: DTS
Формат/Информация: Digital Theater Systems
Профиль формата: MA / Core
Идентификатор кодека: A_DTS
Продолжительность: 4 м. 30 с.
Вид битрейта: Переменный
Битрейт: 1561 Кбит/сек / 1510 Кбит/сек
Каналы: 6 каналов
Расположение каналов: Front: L C R, Side: L R, LFE
Частота: 48,0 КГц
Битовая глубина: 24 бит
Метод сжатия: Без потерь / Lossy

05 - Cathedral Pictures:


Общее
Уникальный идентификатор: 198025006324247630855135114400764763497 (0x94FA3A9BECEC55A4B03A60FE495B9D69)
Полное имя: S:\DOWNLOAD\animusic\05 - Cathedral Pictures.mkv
Формат: Matroska
Размер файла: 1,59 Гбайт
Продолжительность: 6 м. 7 с.
Общий поток: 37,3 Мбит/сек
Дата кодирования: UTC 2011-01-29 22:12:22
Программа кодирования: mkvmerge v4.4.0 ('Die Wiederkehr') built on Oct 31 2010 21:52:48
Библиотека кодирования: libebml v1.0.0 + libmatroska v1.0.0

Видео
Идентификатор: 1
Формат: AVC
Формат/Информация: Advanced Video Codec
Профиль формата: High@L4.1
Параметр CABAC формата: Да
Параметр ReFrames формата: 4 кадра
Идентификатор кодека: V_MPEG4/ISO/AVC
Продолжительность: 6 м. 7 с.
Вид битрейта: Переменный
Битрейт: 34,9 Мбит/сек
Максимальный битрейт: 38,0 Мбит/сек
Ширина: 1920 пикс.
Высота: 1080 пикс.
Соотношение сторон: 16:9
Частота кадров: 29,970 кадр/сек
Цветовое пространство: YUV
Подвыборка цветности: 4:2:0
Битовая глубина: 8 бит
Тип развёртки: MBAFF
Бит/(Пиксели*Кадры): 0.562
Размер потока: 1,49 Гбайт (94%)
Основные цвета: BT.709-5, BT.1361, IEC 61966-2-4, SMPTE RP177
Характеристики трансфера: BT.709-5, BT.1361
Коэффициенты матрицы: BT.709-5, BT.1361, IEC 61966-2-4 709, SMPTE RP177

Аудио
Идентификатор: 2
Формат: DTS
Формат/Информация: Digital Theater Systems
Профиль формата: MA / Core
Идентификатор кодека: A_DTS
Продолжительность: 6 м. 7 с.
Вид битрейта: Переменный
Битрейт: 1561 Кбит/сек / 1510 Кбит/сек
Каналы: 6 каналов
Расположение каналов: Front: L C R, Side: L R, LFE
Частота: 48,0 КГц
Битовая глубина: 24 бит
Метод сжатия: Без потерь / Lossy

06 - Pipe Dream 2:

Общее
Уникальный идентификатор: 222128465829614168780173095239844123338 (0xA71C62EA1344865BA6420CF9E6E852CA)
Полное имя: S:\DOWNLOAD\animusic\06 - Pipe Dream 2.mkv
Формат: Matroska
Размер файла: 1,01 Гбайт
Продолжительность: 3 м. 52 с.
Общий поток: 37,4 Мбит/сек
Дата кодирования: UTC 2011-02-13 13:03:32
Программа кодирования: mkvmerge v4.5.0 ('Speed of Light') built on Feb1 2011 02:10:32
Библиотека кодирования: libebml v1.2.0 + libmatroska v1.1.0

Видео
Идентификатор: 1
Формат: AVC
Формат/Информация: Advanced Video Codec
Профиль формата: High@L4.1
Параметр CABAC формата: Да
Параметр ReFrames формата: 4 кадра
Параметры GOP формата: M=2, N=32
Идентификатор кодека: V_MPEG4/ISO/AVC
Продолжительность: 3 м. 52 с.
Вид битрейта: Переменный
Битрейт: 35,1 Мбит/сек
Максимальный битрейт: 38,0 Мбит/сек
Ширина: 1920 пикс.
Высота: 1080 пикс.
Соотношение сторон: 16:9
Частота кадров: 29,970 кадр/сек
Цветовое пространство: YUV
Подвыборка цветности: 4:2:0
Битовая глубина: 8 бит
Тип развёртки: MBAFF
Бит/(Пиксели*Кадры): 0.565
Размер потока: 975 Мбайт (94%)
Основные цвета: BT.709-5, BT.1361, IEC 61966-2-4, SMPTE RP177
Характеристики трансфера: BT.709-5, BT.1361
Коэффициенты матрицы: BT.709-5, BT.1361, IEC 61966-2-4 709, SMPTE RP177

Аудио
Идентификатор: 2
Формат: DTS
Формат/Информация: Digital Theater Systems
Профиль формата: MA / Core
Идентификатор кодека: A_DTS
Продолжительность: 3 м. 52 с.
Вид битрейта: Переменный
Битрейт: 1561 Кбит/сек / 1510 Кбит/сек
Каналы: 6 каналов
Расположение каналов: Front: L C R, Side: L R, LFE
Частота: 48,0 КГц
Битовая глубина: 24 бит
Метод сжатия: Без потерь / Lossy
Язык: English

07 - Fiber Bundles:

Общее
Уникальный идентификатор: 181494250955697895673881285242815963381 (0x888A85719F031D2490B199E2041AE0F5)
Полное имя: S:\DOWNLOAD\animusic\07 - Fiber Bundles.mkv
Формат: Matroska
Размер файла: 1,38 Гбайт
Продолжительность: 5 м. 16 с.
Общий поток: 37,4 Мбит/сек
Дата кодирования: UTC 2011-01-29 22:29:32
Программа кодирования: mkvmerge v4.4.0 ('Die Wiederkehr') built on Oct 31 2010 21:52:48
Библиотека кодирования: libebml v1.0.0 + libmatroska v1.0.0

Видео
Идентификатор: 1
Формат: AVC
Формат/Информация: Advanced Video Codec
Профиль формата: High@L4.1
Параметр CABAC формата: Да
Параметр ReFrames формата: 4 кадра
Параметры GOP формата: M=2, N=32
Идентификатор кодека: V_MPEG4/ISO/AVC
Продолжительность: 5 м. 16 с.
Вид битрейта: Переменный
Битрейт: 35,1 Мбит/сек
Максимальный битрейт: 38,0 Мбит/сек
Ширина: 1920 пикс.
Высота: 1080 пикс.
Соотношение сторон: 16:9
Частота кадров: 29,970 кадр/сек
Цветовое пространство: YUV
Подвыборка цветности: 4:2:0
Битовая глубина: 8 бит
Тип развёртки: MBAFF
Бит/(Пиксели*Кадры): 0.564
Размер потока: 1,29 Гбайт (94%)
Основные цвета: BT.709-5, BT.1361, IEC 61966-2-4, SMPTE RP177
Характеристики трансфера: BT.709-5, BT.1361
Коэффициенты матрицы: BT.709-5, BT.1361, IEC 61966-2-4 709, SMPTE RP177

Аудио
Идентификатор: 2
Формат: DTS
Формат/Информация: Digital Theater Systems
Профиль формата: MA / Core
Идентификатор кодека: A_DTS
Продолжительность: 5 м. 16 с.
Вид битрейта: Переменный
Битрейт: 1561 Кбит/сек / 1510 Кбит/сек
Каналы: 6 каналов
Расположение каналов: Front: L C R, Side: L R, LFE
Частота: 48,0 КГц
Битовая глубина: 24 бит
Метод сжатия: Без потерь / Lossy

08 - Gyro Drums:


Общее
Уникальный идентификатор: 245642386978879173095299043220089665460 (0xB8CD00BC0B8124C2B20476CE992AF7B4)
Полное имя: S:\DOWNLOAD\animusic\08 - Gyro Drums.mkv
Формат: Matroska
Размер файла: 1,09 Гбайт
Продолжительность: 4 м. 10 с.
Общий поток: 37,4 Мбит/сек
Дата кодирования: UTC 2011-01-29 22:38:45
Программа кодирования: mkvmerge v4.4.0 ('Die Wiederkehr') built on Oct 31 2010 21:52:48
Библиотека кодирования: libebml v1.0.0 + libmatroska v1.0.0

Видео
Идентификатор: 1
Формат: AVC
Формат/Информация: Advanced Video Codec
Профиль формата: High@L4.1
Параметр CABAC формата: Да
Параметр ReFrames формата: 4 кадра
Идентификатор кодека: V_MPEG4/ISO/AVC
Продолжительность: 4 м. 10 с.
Вид битрейта: Переменный
Битрейт: 35,1 Мбит/сек
Максимальный битрейт: 38,0 Мбит/сек
Ширина: 1920 пикс.
Высота: 1080 пикс.
Соотношение сторон: 16:9
Частота кадров: 29,970 кадр/сек
Цветовое пространство: YUV
Подвыборка цветности: 4:2:0
Битовая глубина: 8 бит
Тип развёртки: MBAFF
Бит/(Пиксели*Кадры): 0.564
Размер потока: 1,02 Гбайт (94%)
Основные цвета: BT.709-5, BT.1361, IEC 61966-2-4, SMPTE RP177
Характеристики трансфера: BT.709-5, BT.1361
Коэффициенты матрицы: BT.709-5, BT.1361, IEC 61966-2-4 709, SMPTE RP177

Аудио
Идентификатор: 2
Формат: DTS
Формат/Информация: Digital Theater Systems
Профиль формата: MA / Core
Идентификатор кодека: A_DTS
Продолжительность: 4 м. 10 с.
Вид битрейта: Переменный
Битрейт: 1561 Кбит/сек / 1510 Кбит/сек
Каналы: 6 каналов
Расположение каналов: Front: L C R, Side: L R, LFE
Частота: 48,0 КГц
Битовая глубина: 24 бит
Метод сжатия: Без потерь / Lossy

09 - Heavy Light:


Общее
Уникальный идентификатор: 233927812727633046853806428660419613276 (0xAFFCDBA1ACD17286BD82F715C2F5525C)
Полное имя: S:\DOWNLOAD\animusic\09 - Heavy Light.mkv
Формат: Matroska
Размер файла: 1,88 Гбайт
Продолжительность: 7 м. 15 с.
Общий поток: 37,0 Мбит/сек
Дата кодирования: UTC 2011-01-29 22:45:26
Программа кодирования: mkvmerge v4.4.0 ('Die Wiederkehr') built on Oct 31 2010 21:52:48
Библиотека кодирования: libebml v1.0.0 + libmatroska v1.0.0

Видео
Идентификатор: 1
Формат: AVC
Формат/Информация: Advanced Video Codec
Профиль формата: High@L4.1
Параметр CABAC формата: Да
Параметр ReFrames формата: 4 кадра
Параметры GOP формата: M=3, N=32
Идентификатор кодека: V_MPEG4/ISO/AVC
Продолжительность: 7 м. 15 с.
Вид битрейта: Переменный
Битрейт: 34,7 Мбит/сек
Максимальный битрейт: 35,0 Мбит/сек
Ширина: 1920 пикс.
Высота: 1080 пикс.
Соотношение сторон: 16:9
Частота кадров: 29,970 кадр/сек
Цветовое пространство: YUV
Подвыборка цветности: 4:2:0
Битовая глубина: 8 бит
Тип развёртки: MBAFF
Бит/(Пиксели*Кадры): 0.559
Размер потока: 1,76 Гбайт (94%)
Основные цвета: BT.709-5, BT.1361, IEC 61966-2-4, SMPTE RP177
Характеристики трансфера: BT.709-5, BT.1361
Коэффициенты матрицы: BT.709-5, BT.1361, IEC 61966-2-4 709, SMPTE RP177

Аудио
Идентификатор: 2
Формат: DTS
Формат/Информация: Digital Theater Systems
Профиль формата: MA / Core
Идентификатор кодека: A_DTS
Продолжительность: 7 м. 15 с.
Вид битрейта: Переменный
Битрейт: 1561 Кбит/сек / 1510 Кбит/сек
Каналы: 6 каналов
Расположение каналов: Front: L C R, Side: L R, LFE
Частота: 48,0 КГц
Битовая глубина: 24 бит
Метод сжатия: Без потерь / Lossy







Поделиться:




реклама партнёра


Вернуться к началу
 Профиль  
 
   Похожие торренты   Автор   Торрент   Размер 
В этой теме нет новых непрочитанных сообщений. РЭД / RED (2010) BDRemux 1080p | D, A, L1

marya111

27 | 11

39.05 ГБ

В этой теме нет новых непрочитанных сообщений. Хешер / Hesher [Драма, 2010] BDRemux 1080p, Avo+Dvo+Mvo+Sub

salma3

17 | 23

39.32 ГБ

В этой теме нет новых непрочитанных сообщений. Жизнь за брата / The Heavy [триллер, 2010] BDRemux 1080р, Mvo

salma3

15 | 9

19.11 ГБ

В этой теме нет новых непрочитанных сообщений. Помни меня / Remember Me [мелодрама, драма, 2010] BDRemux, Dub

salma3

16 | 36

27.44 ГБ

В этой теме нет новых непрочитанных сообщений. Любимый учитель / The Perfect Teacher [Триллер, 2010] BDRemux 1080p, Mvo+Sub

salma3

46 | 22

18.38 ГБ

В этой теме нет новых непрочитанных сообщений. Зимняя кость / Winter's Bone [драма, 2010] BDRemux 1080p, Dvo+Avo+Sub

salma3

34 | 25

31.91 ГБ

В этой теме нет новых непрочитанных сообщений. Больше, чем друг / The Switch [драма, мелодрама, комедия, 2010] BDRemux, Dub

salma3

12 | 3

27.31 ГБ


Начать новую тему Ответить на тему  [ 1 сообщение ] 




Для Мосгорсуда, Роскомнадзора и рекламодателей:: mosgorsud-torrent[собачка]yandex.ru