Торрент файл
скачать торрент магнет ссылка Добавлен: 08 янв 2012, 12:25
Размер: 2.54 ГБ
Сидеров: 1
Личеров: 3
Автор

СообщениеДобавлено: 08 янв 2012, 12:25 

Не в сети
Зам. Админа
Аватара пользователя
Дата регистрации:
02 дек 2010, 12:39
Спасибо: 12461 / 214
Сообщения: 27968
King Diamond - The Videos Collection

Формат: DVD5 (сжатый), MPEG PS, MPEG , PSM
Песня: The Videos Collection
Жанр: Heavy Metal
Продолжительность: 00:43:25
Год выпуска: 1998
Видео: MPEG VIDEO, 720*480, (NTSC 3:2), 29.97 fps, 6232 kbps, 0,602 bit/pixel
Аудио: 48,0 khz, PSM, 2 ch, 1536 kbps avg
Доп. информация: В DVD вошли интервью King телеканалу MTV, а также видеоклипы Mercyful Fate и King Diamond
    01." The Bell Witch "- 1993
    02." Nightmare By Thy Name" - 1994
    03." The Uninvited Guest" - 1996
    04." Witches Dance" - 1994
    05. "Wellcome Home" - 1988
    06." Family Ghost" - 1987
    07." Sleepless Night "- 1989
    08." Egypt "- 1993
Общее
Полное имя: D:\Video\King Diamond\Kinng Diamond Video Collection\VIDEO_TS.VOB
Формат: MPEG-PS
Размер файла: 28,7 Мбайт
Продолжительность: 30 с.
Общий поток: 7916 Кбит/сек

Видео
Идентификатор: 224 (0xE0)
Формат: MPEG Video
Версия формата: Version 2
Профиль формата: Main@Main
Параметр BVOP формата: Да
Параметр матрицы формата: По умолчанию
Параметры GOP формата: M=3, N=16
Продолжительность: 30 с.
Вид битрейта: Постоянный
Битрейт: 6232 Кбит/сек
Ширина: 720 пикс.
Высота: 480 пикс.
Соотношение сторон: 4:3
Частота кадров: 29,970 кадр/сек
Стандарт вещания: NTSC
Цветовое пространство: YUV
Подвыборка цветности: 4:2:0
Битовая глубина: 8 бит
Тип развёртки: Прогрессивная
Метод сжатия: С потерями
Бит/(Пиксели*Кадры): 0.602
Размер потока: 22,6 Мбайт (79%)

Аудио
Идентификатор: 160 (0xA0)
Формат: PCM
Параметр Endianness формата: Big
Параметр Sign формата: Signed
Режим смешивания: DVD-Video
Продолжительность: 30 с.
Вид битрейта: Постоянный
Битрейт: 1536 Кбит/сек
Канал(ы): 2 канала(ов)
Расположение каналов: Front: L R
Частота: 48,0 КГц
Битовая глубина: 16 бит
Размер потока: 5,57 Мбайт (19%)

Текст
Идентификатор: 32 (0x20)
Формат: RLE
Формат/Информация: Run-length encoding

Меню











[b]Поделиться:




реклама партнёра


Вернуться к началу
 Профиль  
 
   Похожие торренты   Автор   Торрент   Размер 
В этой теме нет новых непрочитанных сообщений. Manowar - The Triple Album Collection [3CD Boxed Set] [2012, Heavy Metal , Power Metal , Symphonic Metal , Classic Heavy Metal , True Heavy Metal, MP3]

PriZraK

11 | 3

437.26 МБ

В этой теме нет новых непрочитанных сообщений. Black Diamond - Last Man Standing [2013, Heavy Metal, MP3]

PriZraK

0 | 2

146.71 МБ

В этой теме нет новых непрочитанных сообщений. Diamond Lane - Terrorizer [2014, Heavy Metal, Hard Rock, MP3]

PriZraK

0 | 2

97.69 МБ

В этой теме нет новых непрочитанных сообщений. Diamond Lane - World Without Heroes [2011, Heavy Metal,Hard Rock, MP3]

PriZraK

1 | 2

95.07 МБ

В этой теме нет новых непрочитанных сообщений. Kaledon - Altor: The King's Blacksmith [2013, Power Metal, Heavy Metal, MP3]

PriZraK

0 | 1

158.12 МБ

В этой теме нет новых непрочитанных сообщений. Skintilla - King Of Kings [2009, Heavy Metal,Power Metal, MP3]

PriZraK

0 | 1

92.94 МБ

В этой теме нет новых непрочитанных сообщений. VA - Return Of The Mountain King: A Tribute To Savatage [2000, Heavy Metal, Power Metal, MP3]

PriZraK

2 | 2

171.92 МБ


Начать новую тему Ответить на тему  [ 1 сообщение ] 




Для Мосгорсуда, Роскомнадзора и рекламодателей:: mosgorsud-torrent[собачка]yandex.ru