Торрент файл
скачать торрент магнет ссылка Добавлен: 08 янв 2012, 12:19
Размер: 1.75 ГБ
Сидеров: 3
Личеров: 5
Автор

СообщениеДобавлено: 08 янв 2012, 12:19 

Не в сети
Зам. Админа
Аватара пользователя
Дата регистрации:
02 дек 2010, 12:39
Спасибо: 12460 / 214
Сообщения: 27968
Megadeth - Rust In Peace Live

Формат: BDRip, AVC,MPEG 4 (H - 264), AAC
Песня: Rust In Peace Live
Жанр: Thrash,Speed Metal
Продолжительность: 01:13:00
Год выпуска: 2010
Видео: MPEG 4 VIDEO (H-264), 1280*720, (16:9), 29.97 fps, 2749 kbps, 0,100 bit/pixel
Аудио #1: 48,0 khz, AAC, 2 ch, 192 kbps avg
Аудио #2: 48.0 khz, AAC, 5.1 ch, 448 kbps avg
Доп.информация: Концерт, состоявшийся 31 марта 2010 года в Hollywood Palladium, посвящённый 20-летию выхода альбома "Rust In Peace".
Треклист:
01. Holy Wars...The Punishment Due
02. Hangar 18
03. Take No Prisoners
04. Five Magics
05. Poison Was The Cure
06. Lucretia
07. Tornado Of Souls
08. Dawn Patrol
09. Rust In Peace...Polaris
10. Holy Wars - Reprise

Bonus:
01. Skin O' My Teeth
02. In My Darkest Hour
03. She-Wolf
04. Trust
05. Symphony Of Destruction
06. Peace Sells...But Whos Buying
Общее
Полное имя: D:\Video\Megadeth\Megadeth - Rust In Peace Live 2010.mp4
Формат: MPEG-4
Профиль формата: Base Media
Идентификатор кодека: isom
Размер файла: 1,75 Гбайт
Продолжительность: 1 ч. 13 м.
Общий поток: 3393 Кбит/сек

Видео
Идентификатор: 1
Формат: AVC
Формат/Информация: Advanced Video Codec
Профиль формата: High@L4.1
Параметр CABAC формата: Да
Параметр ReFrames формата: 3 кадры
Идентификатор кодека: avc1
Идентификатор кодека/Информация: Advanced Video Coding
Продолжительность: 1 ч. 13 м.
Вид битрейта: Переменный
Битрейт: 2749 Кбит/сек
Максимальный битрейт: 8759 Кбит/сек
Ширина: 1280 пикс.
Высота: 720 пикс.
Соотношение сторон: 16:9
Режим частоты кадров: Постоянный
Частота кадров: 29,970 кадр/сек
Цветовое пространство: YUV
Подвыборка цветности: 4:2:0
Битовая глубина: 8 бит
Тип развёртки: Прогрессивная
Бит/(Пиксели*Кадры): 0.100
Размер потока: 1,42 Гбайт (81%)
Заголовок: Imported with GPAC 0.4.6-DEV (internal rev. 5)
Библиотека кодирования: x264 core 98 r1649 20cbe10

Аудио #1
Идентификатор: 2
Формат: AAC
Формат/Информация: Advanced Audio Codec
Профиль формата: LC
Идентификатор кодека: 40
Продолжительность: 1 ч. 13 м.
Вид битрейта: Переменный
Битрейт: 192 Кбит/сек
Максимальный битрейт: 196 Кбит/сек
Канал(ы): 2 канала(ов)
Расположение каналов: Front: L R
Частота: 48,0 КГц
Метод сжатия: С потерями
Размер потока: 101 Мбайт (6%)

Аудио #2
Идентификатор: 3
Формат: AAC
Формат/Информация: Advanced Audio Codec
Профиль формата: LC
Идентификатор кодека: 40
Продолжительность: 1 ч. 13 м.
Вид битрейта: Переменный
Битрейт: 448 Кбит/сек
Максимальный битрейт: 458 Кбит/сек
Канал(ы): 6 канала(ов)
Расположение каналов: Front: L C R, Side: L R, LFE
Частота: 48,0 КГц
Метод сжатия: С потерями
Размер потока: 237 Мбайт (13%)










[b]Поделиться:




реклама партнёра


Вернуться к началу
 Профиль  
 
   Похожие торренты   Автор   Торрент   Размер 
В этой теме нет новых непрочитанных сообщений. Megadeth - Countdown To Extinction: Live [2013, Heavy Metal, Thrash Metal, MP3]

PriZraK

1 | 2

183.96 МБ

В этой теме нет новых непрочитанных сообщений. Eternal Legacy - Seeking No Peace [2013,Power Metal,Speed Metal,MP3]

PriZraK

0 | 1

93.44 МБ

В этой теме нет новых непрочитанных сообщений. Megadeth - Icon (Compilation) [2014, Heavy Metal, Thrash Metal, MP3]

PriZraK

23 | 2

118.93 МБ

В этой теме нет новых непрочитанных сообщений. Megadeth - Super Collider (Best Buy Exclusive Edition) [2013, Heavy Metal,Thrash Metal, MP3]

PriZraK

4 | 2

131.07 МБ

В этой теме нет новых непрочитанных сообщений. Megadeth - Th1rt3en [2011, Thrash Metal, Heavy Metal, MP3]

PriZraK

3 | 2

132.19 МБ

В этой теме нет новых непрочитанных сообщений. Megadeth - Never Dead (New Track) [09.2011, Thrash Metal, MP3]

PriZraK

1 | 2

8.98 МБ

В этой теме нет новых непрочитанных сообщений. Hatefulmurder - No Peace [2014, Melodic Death Metal, Thrash Metal, MP3]

PriZraK

0 | 2

86.1 МБ


Начать новую тему Ответить на тему  [ 1 сообщение ] 




Для Мосгорсуда, Роскомнадзора и рекламодателей:: mosgorsud-torrent[собачка]yandex.ru