Торрент файл
скачать торрент магнет ссылка Добавлен: 08 янв 2012, 12:14
Размер: 3.17 ГБ
Сидеров: 0
Личеров: 6
Автор

СообщениеДобавлено: 08 янв 2012, 12:14 

Не в сети
Зам. Админа
Аватара пользователя
Дата регистрации:
02 дек 2010, 12:39
Спасибо: 12623 / 214
Сообщения: 28012
Metal Church - Dynamo Classic Concerts

Формат: DVD5, MPEG PS, MPEG 2, AC3
Песня: Dynamo Classic Concerts
Жанр: Heavy Metal
Продолжительность: 01:11:27
Год выпуска: 2007
Видео: MPEG 2 VIDEO, 720*576( PAL 4:3), 25.00 fps, 6103 kbps avg, 0. 589 bit/pixel
Аудио: 48,0 khz, AC-3, 2 ch, 224 kbps avg
Доп. информация: Выступления на европейском фестивале Dynamo в 1991-ом году.
    Треклист:

01. Beyond the Black
02. Human Factor
03. In Mourning
04. Fake Healer
05. Flee from Reality
06. In Harm's Way
07. Ton of Bricks
08. Start the Fire
09. Final Word
10. Agent Green
11. Date with Poverty
12. Metal Church
Title: Dynamo Classic Concert
Size: 3.17 Gb ( 3 321 100,00 KBytes ) - DVD-5
Enabled regions: 1, 2, 3, 4, 5, 6, 7, 8

VTS_01 :
Play Length: 01:11:27
Video: PAL 4:3 (720x576) VBR
Audio:
English (Dolby AC3, 2 ch)

VTS_02 :
Play Length: 00:00:10
Video: PAL 4:3 (720x576) VBR

VTS_03 :
Play Length: 00:00:07
Video: PAL 4:3 (720x576) VBR

* Menus Information *

VIDEO_TS Menu
Video:
PAL 4:3 (720x576) VBR
English Language Unit :
Title Menu

VTS_01 Menu
Video:
PAL 4:3 (720x576) VBR
English Language Unit :
Root Menu
Chapter (PTT) Menu

VTS_02 Menu
Video:
PAL 4:3 (720x576) VBR
English Language Unit :
Root Menu

VTS_03 Menu
Video:
PAL 4:3 (720x576) VBR
English Language Unit :
Root Menu
Общее
Полное имя: D:\Video\Metal Church\Dynamo Classic Concert\VIDEO_TS\VTS_01_1.VOB
Формат: MPEG-PS
Размер файла: 1024 Мбайт
Продолжительность: 22 м.
Общий поток: 6456 Кбит/сек

Видео
Идентификатор: 224 (0xE0)
Формат: MPEG Video
Версия формата: Version 2
Профиль формата: Main@Main
Параметр BVOP формата: Да
Параметр матрицы формата: По умолчанию
Продолжительность: 22 м.
Вид битрейта: Переменный
Битрейт: 6103 Кбит/сек
Номинальный битрейт: 9800 Кбит/сек
Ширина: 720 пикс.
Высота: 576 пикс.
Соотношение сторон: 4:3
Частота кадров: 25,000 кадр/сек
Стандарт вещания: PAL
Цветовое пространство: YUV
Подвыборка цветности: 4:2:0
Битовая глубина: 8 бит
Тип развёртки: Чересстрочная
Порядок развёртки: Нижнее поле первое
Метод сжатия: С потерями
Бит/(Пиксели*Кадры): 0.589
Размер потока: 968 Мбайт (95%)

Аудио
Идентификатор: 128 (0x80)
Формат: AC-3
Формат/Информация: Audio Coding 3
Расширение режима: CM (complete main)
Продолжительность: 22 м.
Вид битрейта: Постоянный
Битрейт: 224 Кбит/сек
Канал(ы): 2 канала(ов)
Расположение каналов: Front: L R
Частота: 48,0 КГц
Битовая глубина: 16 бит
Метод сжатия: С потерями
Размер потока: 35,5 Мбайт (3%)

Меню








[b]Поделиться:




реклама партнёра


Вернуться к началу
 Профиль  
 
   Похожие торренты   Автор   Торрент   Размер 
В этой теме нет новых непрочитанных сообщений. VA - Heavy Metal: Louder Than Life [2015, Hard Rock, Melodic Heavy Metal, Heavy Metal, MP3]

Nickolas3435

0 | 272

2.43 ГБ

В этой теме нет новых непрочитанных сообщений. Within Temptation: Let Us Burn - Elements & Hydra Live In Concert [Symphonic Metal, Gothic Rock, Power Metal, 2014] BDRemux 1080i

Dracon

32 | 8

20.63 ГБ

В этой теме нет новых непрочитанных сообщений. W.A.S.P. - Golgotha [2015, Heavy Metal, Glam Metal, Hard Rock, MP3]

salma3

0 | 0

108.17 МБ

В этой теме нет новых непрочитанных сообщений. Accept - Heavy Ballads (Heavy Metal. 2015) MP3

Aleksandr.ru

403 | 34

363.25 МБ

В этой теме нет новых непрочитанных сообщений. Сборник клипов - Monsters of Metal Vol. 10 [2016, Black Metal, Death Metal, Gothic, WEBRip]

salma3

181 | 14

7.01 ГБ

В этой теме нет новых непрочитанных сообщений. Broken Hope - Дискография [Brutal Death Metal 1991-2013] FLAC

Redscarf

0 | 1

1.62 ГБ

В этой теме нет новых непрочитанных сообщений. U.D.O. - Decadent (Heavy Metal. 2015) MP3

Aleksandr.ru

11 | 4

138.24 МБ


Начать новую тему Ответить на тему  [ 1 сообщение ] 




Для Мосгорсуда, Роскомнадзора и рекламодателей:: mosgorsud-torrent[собачка]yandex.ru