Торрент файл
скачать торрент магнет ссылка Добавлен: 08 янв 2012, 12:13
Размер: 4.1 ГБ
Сидеров: 6
Личеров: 4
Автор

СообщениеДобавлено: 08 янв 2012, 12:13 

Не в сети
Зам. Админа
Аватара пользователя
Дата регистрации:
02 дек 2010, 12:39
Спасибо: 12461 / 214
Сообщения: 27968
Motley Crue - Live At Buenos Aires

Формат: DVD 5, MPEG PS, MPEG 2, AC 3
Песня: Live At Buenos Aires
Жанр: Glam Rock
Продолжительность: 01:38:49
Год выпуска: 2008
Видео: MPEG 2 VIDEO, 720*480, (4:3 NTSC), 29.97 fps, 5639 kbps, 0,544 bit/pixel
Аудио: 48.0 khz, AC-3, 2 ch, 256 kbps avg
Доп. информация:
    Треклист:
01.Kickstart My Heart
02. Wild Side
03. Shout at the Devil
04. Saints of Los Angeles
05. Live Wire
06. Sick Love song
07. Louder than hell
08. Motherfucker of the Year
09. Don`t go away mad (just go away)
10. Same ol Situation
11. Primal Scream
12. Red hot
13. Looks that kill
14. Girls, girls, girls
15. Dr. Feelgood
16. Home Sweet Home
Title: Motley Crue - Live At Buenos Aires
Size: 4.10 Gb ( 4 300 858,00 KBytes ) - DVD-5
Enabled regions: 1, 2, 3, 4, 5, 6, 7, 8

VTS_01 :
Play Length: 00:00:06+00:00:12+01:38:49
Video: NTSC 4:3 (720x480) VBR, Letterboxed
Audio:
English (Dolby AC3, 2 ch)
Subtitles:
English
Общее
Полное имя: D:\Torrents\Download\Motley Crue - Live At Buenos Aires\VIDEO_TS\VTS_01_1.VOB
Формат: MPEG-PS
Размер файла: 1024 Мбайт
Продолжительность: 23 м.
Общий поток: 6015 Кбит/сек

Видео
Идентификатор: 224 (0xE0)
Формат: MPEG Video
Версия формата: Version 2
Профиль формата: Main@Main
Параметр BVOP формата: Да
Параметр матрицы формата: По умолчанию
Параметры GOP формата: M=2, N=18
Продолжительность: 23 м.
Вид битрейта: Постоянный
Битрейт: 5639 Кбит/сек
Номинальный битрейт: 7500 Кбит/сек
Ширина: 720 пикс.
Высота: 480 пикс.
Соотношение сторон: 4:3
Частота кадров: 29,970 кадр/сек
Стандарт вещания: NTSC
Цветовое пространство: YUV
Подвыборка цветности: 4:2:0
Битовая глубина: 8 бит
Тип развёртки: Чересстрочная
Порядок развёртки: Нижнее поле первое
Метод сжатия: С потерями
Бит/(Пиксели*Кадры): 0.544
Размер потока: 960 Мбайт (94%)

Аудио
Идентификатор: 128 (0x80)
Формат: AC-3
Формат/Информация: Audio Coding 3
Расширение режима: CM (complete main)
Продолжительность: 3 с. 648 мс.
Вид битрейта: Постоянный
Битрейт: 256 Кбит/сек
Канал(ы): 2 канала(ов)
Расположение каналов: Front: L R
Частота: 48,0 КГц
Битовая глубина: 16 бит
Метод сжатия: С потерями
Размер потока: 114 Кбайт (0%)

Меню









[b]Поделиться:




реклама партнёра


Вернуться к началу
 Профиль  
 
   Похожие торренты   Автор   Торрент   Размер 
В этой теме нет новых непрочитанных сообщений. Motley Crue - Saints Of Los Angeles [2008, Glam, Heavy Metal, Hard Rock, MP3]

PriZraK

2 | 1

122.45 МБ

В этой теме нет новых непрочитанных сообщений. Motley Crue - Sex (Single) [16.07.2012, Hard Rock, MP3]

PriZraK

0 | 1

8.44 МБ

В этой теме нет новых непрочитанных сообщений. Смерть в Буэнос-Айресе / Muerte en Buenos Aires (Наталия Мета) [Триллер, Драма, Мелодрама, Криминал, Детектив, 2014] DVDRip, avo

Dracon

8 | 3

1.39 ГБ

В этой теме нет новых непрочитанных сообщений. Cinderella - Stripped [Live] (Hard Rock, Glam Metal. 2014) MP3

Aleksandr.ru

98 | 12

182.42 МБ

В этой теме нет новых непрочитанных сообщений. Saints Of The Underground - Love The Sin, Hate The Sinner [2008, Hard Rock, Glam Rock, MP3]

PriZraK

0 | 1

95.8 МБ

В этой теме нет новых непрочитанных сообщений. VA - Стальные нервы (Glam Metal and Hair Rock Classics) [2013, Glam Metal, Hair Rock, Hard Rock, Rock, MP3]

PriZraK

0 | 1

589.04 МБ

В этой теме нет новых непрочитанных сообщений. Miss Crazy - II [2008, Glam Hard Rock, MP3]

PriZraK

0 | 1

95.59 МБ


Начать новую тему Ответить на тему  [ 1 сообщение ] 




Для Мосгорсуда, Роскомнадзора и рекламодателей:: mosgorsud-torrent[собачка]yandex.ru