Торрент файл
скачать торрент магнет ссылка Добавлен: 08 янв 2012, 12:11
Размер: 7.46 ГБ
Сидеров: 2
Личеров: 4
Автор

СообщениеДобавлено: 08 янв 2012, 12:11 

Не в сети
Зам. Админа
Аватара пользователя
Дата регистрации:
02 дек 2010, 12:39
Спасибо: 12623 / 214
Сообщения: 28012

The Prodigy - World's On Fire

Формат: DVD9, DVD Video, MPEG2, AC3
Песня: World's On Fire
Жанр: Electronic, Electro, Breakbeat
Продолжительность: 01:06:23
Год выпуска: 2011
Видео: 720x480@853x480 (VBR, NTSC 16:9), 29 fps, MPEG-2 Video ~5357 kbps avg, 0.585 bit/pixel
Аудио 1: 48 kHz, AC3, 6 ch, ~448 kbps avg
Аудио 2: 48 kHz, AC3, 2 ch, ~448 kbps avg
Видео
Идентификатор : 224 (0xE0)
Формат : MPEG Video
Версия формата : Version 2
Профиль формата : Main@Main
Параметр BVOP формата : Да
Параметр матрицы формата : По умолчанию
Продолжительность : 20 м.
Вид битрейта : Переменный
Битрейт : 6064 Кбит/сек
Номинальный битрейт : 9800 Кбит/сек
Ширина : 720 пикс.
Высота : 480 пикс.
Соотношение сторон : 16:9
Частота кадров : 29,970 кадр/сек
Стандарт вещания : NTSC
Цветовое пространство : YUV
Подвыборка цветности : 4:2:0
Битовая глубина : 8 бит
Тип развёртки : Чересстрочная
Порядок развёртки : Нижнее поле первое
Метод сжатия : С потерями
Бит/(Пиксели*Кадры) : 0.585
Размер потока : 874 Мбайт (85%)

Аудио #1
Идентификатор : 189 (0xBD)-128 (0x80)
Формат : AC-3
Формат/Информация : Audio Coding 3
Расширение режима : CM (complete main)
Режим смешивания : DVD-Video
Продолжительность : 20 м.
Вид битрейта : Постоянный
Битрейт : 448 Кбит/сек
Каналы : 2 канала
Расположение каналов : Front: L R
Частота : 48,0 КГц
Битовая глубина : 16 бит
Метод сжатия : С потерями
Размер потока : 64,6 Мбайт (6%)

Аудио #2
Идентификатор : 189 (0xBD)-129 (0x81)
Формат : AC-3
Формат/Информация : Audio Coding 3
Расширение режима : CM (complete main)
Режим смешивания : DVD-Video
Продолжительность : 20 м.
Вид битрейта : Постоянный
Битрейт : 448 Кбит/сек
Каналы : 6 каналов
Расположение каналов : Front: L C R, Side: L R, LFE
Частота : 48,0 КГц
Битовая глубина : 16 бит
Метод сжатия : С потерями
Размер потока : 64,6 Мбайт (6%)








Поделиться:




реклама партнёра


Вернуться к началу
 Профиль  
 
   Похожие торренты   Автор   Торрент   Размер 
В этой теме нет новых непрочитанных сообщений. The Prodigy - The Day Is My Enemy [2015, Electronic, BigBeat, Breakbeat, FLAC]

Nickolas3435

68 | 4

420.37 МБ

В этой теме нет новых непрочитанных сообщений. Young Fire - Euro-Fire [Pop, Disco, 2008] MP3, 192kbps

Dracon

7 | 5

79.07 МБ

В этой теме нет новых непрочитанных сообщений. VA - Millennium The Next Generation Vol. 25 [Electronic, Dance, Electro, House, Progressive, Trance, 2014] MP3, 320 kbps

Dracon

19 | 5

364.78 МБ

В этой теме нет новых непрочитанных сообщений. The Prodigy - Nasty [2015, клип, HD 1080p]

Nickolas3435

705 | 16

97.54 МБ

В этой теме нет новых непрочитанных сообщений. [Vivid.com] Cassie Fire (Seductively slutty teen Cassie fire throws herself at her neighbor / 07.09.2107) [2017 г., Big Dick, Black Hair, Facial, Petite, Small Tits, Teen, 1080p]

salma3

28 | 9

775.82 МБ

В этой теме нет новых непрочитанных сообщений. Armin Van Buuren - A State of Trance 714 [21.05] [2015, Electronic, Big Room, Electro, House, Progressive, Trance, MP3]

Nickolas3435

143 | 9

298.17 МБ

В этой теме нет новых непрочитанных сообщений. VA - Fused Funk Vol 04 [Breakbeat, Breaks, Funk, Nu-Disco, 2014] MP3, 320kbps

Dracon

13 | 3

140 МБ


Начать новую тему Ответить на тему  [ 1 сообщение ] 




Для Мосгорсуда, Роскомнадзора и рекламодателей:: mosgorsud-torrent[собачка]yandex.ru