Торрент файл
скачать торрент магнет ссылка Добавлен: 08 янв 2012, 12:09
Размер: 146.72 МБ
Сидеров: 0
Личеров: 4
Автор

СообщениеДобавлено: 08 янв 2012, 12:09 

Не в сети
Зам. Админа
Аватара пользователя
Дата регистрации:
02 дек 2010, 12:39
Спасибо: 12625 / 214
Сообщения: 28010
Behemoth - Ov Fire And The Void

Формат: BDRip, MKV, MPEG-4 (H-264), AC3
Песня: Ov Fire And The Void
Жанр: Black Metal
Продолжительность: 00:05:22
Год выпуска: 2010
Видео: 1280x688 (16:9, 4:2:0), 24.000 fps, AVC, MPEG-4(H-264) ~ 3295 kbps avg, 0.156 bit/pixel
Аудио: 48 kHz, AC3, 2 ch, ~448.00 kbps avg
Доп. информация:










Video #1
Format : AVC
Format/Info : Advanced Video Codec
Format profile : High@L4.1
Format settings, CABAC : Yes
Format settings, ReFrames : 3 frames
Format settings, GOP : M=1, N=30
Muxing mode : Container profile=Unknown@4.1
Codec ID : V_MPEG4/ISO/AVC
Duration : 5mn 22s
Bit rate mode : Variable
Bit rate : 3 295 Kbps
Maximum bit rate : 40.0 Mbps
Width : 1 280 pixels
Height : 688 pixels
Display aspect ratio : 1.860
Frame rate : 24.000 fps
Color space : YUV
Chroma subsampling : 4:2:0
Bit depth : 8 bits
Scan type : Progressive
Bits/(Pixel*Frame) : 0.156
Stream size : 127 MiB (86%)
Writing library : x264 core 114 r1913 5fd3dce
Language : English
Audio #2
Format : AC-3
Format/Info : Audio Coding 3
Mode extension : CM (complete main)
Muxing mode : Header stripping
Codec ID : A_AC3
Duration : 5mn 22s
Bit rate mode : Constant
Bit rate : 448 Kbps
Channel(s) : 2 channels
Channel positions : Front: L R
Sampling rate : 48.0 KHz
Bit depth : 16 bits
Stream size : 17.2 MiB (12%)
Language : English


Релиз представлен группой
Поделиться:




реклама партнёра


Вернуться к началу
 Профиль  
 
   Похожие торренты   Автор   Торрент   Размер 
В этой теме нет новых непрочитанных сообщений. [Vivid.com] Cassie Fire (Seductively slutty teen Cassie fire throws herself at her neighbor / 07.09.2107) [2017 г., Big Dick, Black Hair, Facial, Petite, Small Tits, Teen, 1080p]

salma3

28 | 9

775.82 МБ

В этой теме нет новых непрочитанных сообщений. Пустота / The Void [Ужасы, 2016] BDRip 720p, Mvo

salma3

479 | 145

3.93 ГБ

В этой теме нет новых непрочитанных сообщений. Пустота / The Void [Ужасы, 2016] BDRip 1080p, Mvo

salma3

339 | 57

7.34 ГБ

В этой теме нет новых непрочитанных сообщений. Пустота / The Void [ужасы, фантастика, 2016] BDRip, Avo

salma3

183 | 29

1.45 ГБ

В этой теме нет новых непрочитанных сообщений. Black Fire [2.0.17] [Action, MMORPG, Survival, 2013] [Лицензия]

fiouyrt

0 | 2

6.62 ГБ

В этой теме нет новых непрочитанных сообщений. DragonForce - In The Line Of Fire [2015, Power Metal, MP3]

salma3

0 | 0

158.41 МБ

В этой теме нет новых непрочитанных сообщений. Сборник клипов - Monsters of Metal Vol. 10 [2016, Black Metal, Death Metal, Gothic, WEBRip]

salma3

181 | 14

7.01 ГБ


Начать новую тему Ответить на тему  [ 1 сообщение ] 




Для Мосгорсуда, Роскомнадзора и рекламодателей:: mosgorsud-torrent[собачка]yandex.ru