Торрент файл
скачать торрент магнет ссылка Добавлен: 08 янв 2012, 12:07
Размер: 3.61 ГБ
Сидеров: 0
Личеров: 7
Автор

СообщениеДобавлено: 08 янв 2012, 12:07 

Не в сети
Зам. Админа
Аватара пользователя
Дата регистрации:
02 дек 2010, 12:39
Спасибо: 12461 / 214
Сообщения: 27968
Motorhead - Live - Everything Louder Than Everything Else

Формат: DVD 5, MPEG PS, MPEG 2, AC 3
Песня: Live - Everything Louder Than Everything Else
Жанр: Hard Rock, Heavy Metal
Продолжительность: 01:06:31
Год выпуска: 1991
Видео: MPEG 2 VIDEO, 720*576( PAL 4:3), 25.00 fps, 6798 kbps avg, 0. 656 bit/pixel
Аудио: 48,0 khz, AC-3, 2 ch, 224 kbps avg
Доп. информация: Kонцерт в Мюнхене в марте 1991 года.
    Состав:Lemmy - bass guitar, vocals
    Phil Campbell - guitar
    Würzel - guitar
    Philthy Animal Taylor - drums
    Треклист: 1. Metropolis
    2. I'm So Bad (Baby I Don't Care)
    3. Going To Brazil
    4. Traitor
    5. No Voices In The Sky
    6. Power
    7. Angel City
    8. Love Me Forever
    9. Ramones
    10. Orgasmatron
    11. Killed By Death
    12. Ace Of Spades

Title: Live-Everything Louder Than Everything Else
Size: 3.61 Gb ( 3 787 232,00 KBytes ) - DVD-5
Enabled regions: 1, 2, 3, 4, 5, 6, 7, 8

VTS_01 :
Play Length: 01:06:31
Video: PAL 4:3 (720x576) VBR
Audio:
English, AC3, 2/0 (L,R) ch, 224 kbps, Delay 0 mSec

* Menus Information *

VIDEO_TS Menu
Video:
PAL 4:3 (720x576) VBR
Audio:
Not specified (Dolby AC3, 2 ch)
English Language Unit :
Title Menu

VTS_01 Menu
Video:
PAL 4:3 (720x576) VBR
English Language Unit :
Root Menu
Chapter (PTT) Menu
Общее
Полное имя: D:\Torrents\Download\Live-Everything Louder Than Everything Else\VIDEO_TS\VTS_01_3.VOB
Формат: MPEG-PS
Размер файла: 1024 Мбайт
Продолжительность: 19 м.
Общий поток: 7165 Кбит/сек

Видео
Идентификатор: 224 (0xE0)
Формат: MPEG Video
Версия формата: Version 2
Профиль формата: Main@Main
Параметр BVOP формата: Да
Параметр матрицы формата: По умолчанию
Параметры GOP формата: M=3, N=12
Продолжительность: 19 м.
Вид битрейта: Переменный
Битрейт: 6798 Кбит/сек
Номинальный битрейт: 8264 Кбит/сек
Ширина: 720 пикс.
Высота: 576 пикс.
Соотношение сторон: 4:3
Частота кадров: 25,000 кадр/сек
Стандарт вещания: PAL
Цветовое пространство: YUV
Подвыборка цветности: 4:2:0
Битовая глубина: 8 бит
Тип развёртки: Чересстрочная
Порядок развёртки: Верхнее поле первое
Метод сжатия: С потерями
Бит/(Пиксели*Кадры): 0.656
Размер потока: 972 Мбайт (95%)

Аудио
Идентификатор: 128 (0x80)
Формат: AC-3
Формат/Информация: Audio Coding 3
Расширение режима: CM (complete main)
Продолжительность: 19 м.
Вид битрейта: Постоянный
Битрейт: 224 Кбит/сек
Канал(ы): 2 канала(ов)
Расположение каналов: Front: L R
Частота: 48,0 КГц
Битовая глубина: 16 бит
Метод сжатия: С потерями
Задержка видео: -440 мс.
Размер потока: 32,0 Мбайт (3%)

Меню










[b]Поделиться:




реклама партнёра


Вернуться к началу
 Профиль  
 
   Похожие торренты   Автор   Торрент   Размер 
В этой теме нет новых непрочитанных сообщений. VA - Heavy Metal: Louder Than Life [2015, Hard Rock, Melodic Heavy Metal, Heavy Metal, MP3]

Nickolas3435

0 | 272

2.43 ГБ

В этой теме нет новых непрочитанных сообщений. Motorhead - Aftershock [2013, Hard Rock, Heavy Metal, MP3]

PriZraK

0 | 1

108.45 МБ

В этой теме нет новых непрочитанных сообщений. Pretty Maids - Louder Than Ever (Japanese Edition) [2014, Hard Rock, Heavy Metal, MP3]

PriZraK

3 | 1

212.19 МБ

В этой теме нет новых непрочитанных сообщений. Rainbow - Long Live Rock 'n' Roll (Deluxe Remastered Edition) [2012, Heavy Metal, Hard Rock, MP3]

PriZraK

1 | 2

253.1 МБ

В этой теме нет новых непрочитанных сообщений. Black Sabbath - Live... Gathered In Their Masses [2013, Hard Rock, Heavy Metal, MP3]

PriZraK

3 | 2

246.01 МБ

В этой теме нет новых непрочитанных сообщений. Black Blitz - Louder Than Thunder [2013, Hard Rock, MP3]

PriZraK

0 | 1

93.08 МБ

В этой теме нет новых непрочитанных сообщений. VA - Hard n' Heavy 80's [2012, Hard Rock, Heavy, Hair, Glam Metal, MP3]

PriZraK

0 | 1

703.85 МБ


Начать новую тему Ответить на тему  [ 1 сообщение ] 




Для Мосгорсуда, Роскомнадзора и рекламодателей:: mosgorsud-torrent[собачка]yandex.ru