Торрент файл
скачать торрент магнет ссылка Добавлен: 08 янв 2012, 12:07
Размер: 1.05 ГБ
Сидеров: 3
Личеров: 6
Автор

СообщениеДобавлено: 08 янв 2012, 12:07 

Не в сети
Зам. Админа
Аватара пользователя
Дата регистрации:
02 дек 2010, 12:39
Спасибо: 12623 / 214
Сообщения: 28012
Motorhead - Live - Everything Louder Than Everything Else

Формат: DVDRip, AVI, XviD, AC3
Песня: Live - Everything Louder Than Everything Else
Жанр: Hard Rock, Heavy Metal
Продолжительность: 01:06:31
Год выпуска: 1991
Видео: MPEG 4 VIDEO, 720*480, (3:2 NTSC), 30.0 fps, 1997 kbps, 0,139 bit/pixel
Аудио: 48,0 khz, AC-3, 2 ch, 224 kbps avg
Доп. информация: Концерт в Мюнхене в марте 1991 года. В рамках тура 1916.
    Треклист: 1. Metropolis
    2. I'm So Bad (Baby I Don't Care)
    3. Going To Brazil
    4. Traitor
    5. No Voices In The Sky
    6. Power
    7. Angel City
    8. Love Me Forever
    9. Ramones
    10. Orgasmatron
    11. Killed By Death
    12. Ace Of Spades
Общее
Полное имя: D:\Video\Motorhead\AVI\Motorhead -Live Everything Louder Than Everything Else.avi
Формат: AVI
Формат/Информация: Audio Video Interleave
Профиль формата: OpenDML
Размер файла: 1,05 Гбайт
Продолжительность: 1 ч. 7 м.
Общий поток: 2237 Кбит/сек
Программа кодирования: Lavf52.82.0

Видео
Идентификатор: 0
Формат: MPEG-4 Visual
Профиль формата: Simple@L3
Параметр BVOP формата: Нет
Параметр QPel формата: Нет
Параметр GMC формата: Без точки перехода
Параметр матрицы формата: Default (H.263)
Идентификатор кодека: FMP4
Продолжительность: 1 ч. 7 м.
Битрейт: 1997 Кбит/сек
Ширина: 720 пикс.
Высота: 480 пикс.
Соотношение сторон: 3:2
Частота кадров: 30,000 кадр/сек
Стандарт вещания: NTSC
Цветовое пространство: YUV
Подвыборка цветности: 4:2:0
Битовая глубина: 8 бит
Тип развёртки: Прогрессивная
Метод сжатия: С потерями
Бит/(Пиксели*Кадры): 0.193
Размер потока: 958 Мбайт (89%)
Библиотека кодирования: XviD 1.2.1 (UTC 2008-12-04)

Аудио
Идентификатор: 1
Формат: AC-3
Формат/Информация: Audio Coding 3
Расширение режима: CM (complete main)
Идентификатор кодека: 2000
Продолжительность: 1 ч. 7 м.
Вид битрейта: Постоянный
Битрейт: 224 Кбит/сек
Канал(ы): 2 канала(ов)
Расположение каналов: Front: L R
Частота: 48,0 КГц
Битовая глубина: 16 бит
Метод сжатия: С потерями
Размер потока: 107 Мбайт (10%)
Выравнивание: Соединение по промежуткам
Продолжительность промежутка: 32мс. (0,96 видеокадр)
Время предзагрузки промежутка: 32 ms





[b]Поделиться:




реклама партнёра


Вернуться к началу
 Профиль  
 
   Похожие торренты   Автор   Торрент   Размер 
В этой теме нет новых непрочитанных сообщений. VA - Heavy Metal: Louder Than Life [2015, Hard Rock, Melodic Heavy Metal, Heavy Metal, MP3]

Nickolas3435

0 | 272

2.43 ГБ

В этой теме нет новых непрочитанных сообщений. W.A.S.P. - Golgotha [2015, Heavy Metal, Glam Metal, Hard Rock, MP3]

salma3

0 | 0

108.17 МБ

В этой теме нет новых непрочитанных сообщений. Cinderella - Stripped [Live] (Hard Rock, Glam Metal. 2014) MP3

Aleksandr.ru

98 | 12

182.42 МБ

В этой теме нет новых непрочитанных сообщений. Ария - Через все времена [Hard Rock, Heavy Metal, 2014] FLAC

Dracon

142 | 2

482.27 МБ

В этой теме нет новых непрочитанных сообщений. Ozzy Osbourne - The Ultimate Sin [Remastered] (Hard Rock, Heavy Metal. 2014) MP3

Aleksandr.ru

96 | 9

100.38 МБ

В этой теме нет новых непрочитанных сообщений. Ария - Через все времена (Deluxe Version) (Hard Rock, Heavy Metal. 2014) MP3

Aleksandr.ru

2092 | 187

292.04 МБ

В этой теме нет новых непрочитанных сообщений. Сборник клипов - Hard Rock and Metal от ALEXnROCK Диск 2 [51 шт.] [Rock, Metal, 2017] DVDRip

salma3

16 | 7

4.26 ГБ


Начать новую тему Ответить на тему  [ 1 сообщение ] 




Для Мосгорсуда, Роскомнадзора и рекламодателей:: mosgorsud-torrent[собачка]yandex.ru