Торрент файл
скачать торрент магнет ссылка Добавлен: 08 янв 2012, 12:07
Размер: 2.71 ГБ
Сидеров: 3
Личеров: 3
Автор

СообщениеДобавлено: 08 янв 2012, 12:07 

Не в сети
Зам. Админа
Аватара пользователя
Дата регистрации:
02 дек 2010, 12:39
Спасибо: 12623 / 214
Сообщения: 28012
Tarja Turunen - Live In Lima

Формат: HDCamRip, MPEG PS, MPEG 2, AC 3
Песня: Live In Lima
Жанр: Sympho, Gothic Metal
Продолжительность: 01:01:38
Год выпуска: 2011
Видео: MPEG 2 VIDEO, 720*480, (16:9 NTSC), 29.97 fps, 26,6 mbps, 2,565 bit/pixel
Аудио: 48,0 khz, AC-3, 2 ch, 224 kbps avg
Доп. информация: Концерт в рамках тура" What Lies Beneath America", прошедший 19.03.2011 в Teatro De La Uni - Лима, Перу.
    Треклист: 01. Intro/Dark Star
    02. The Crying Moon
    03. I Walk Alone
    04. Falling Awake
    05. Signos
    06. Underneath
    07. Higher Than Hope
    08. Drum Solo (Mike Terrana)
    09. In For a Kill
    10. Where were you last Night
    11. Die Alive
    12. Until My Last Breath
    13. Wishmaster
    14. Stargazer
Title: Live in Lima
Size: 2.71 Gb ( 2 839 608,00 KBytes ) - DVD-5
Enabled regions: 1, 2, 3, 4, 5, 6, 7, 8

VTS_01 :
Play Length: 01:01:38
Video: NTSC 16:9 (720x480) VBR, Auto Letterboxed
Audio:
Not specified, AC3, 2/0 (L,R) ch, 224 kbps, Delay 0 mSec

* Menus Information *

VIDEO_TS Menu
Video:
NTSC 4:3 (720x480) VBR
Auto Pan&Scan, Auto Letterboxed
Language Unit :
Title Menu

VTS_01 Menu
Video:
NTSC 4:3 (720x480) VBR
Audio:
Not specified (Dolby AC3, 2 ch)
Language Unit :
Root Menu
Общее
Полное имя: D:\Video\Tarja Turunen\Live in Lima\VIDEO_TS\VTS_01_1.VOB
Формат: MPEG-PS
Размер файла: 1024 Мбайт
Продолжительность: 5 м. 14 с.
Общий поток: 27,3 Мбит/сек
Библиотека кодирования: encoded by TMPGEnc DVD Author 3 Version. 3.1.2.176

Видео
Идентификатор: 224 (0xE0)
Формат: MPEG Video
Версия формата: Version 2
Профиль формата: Main@Main
Параметр BVOP формата: Да
Параметр матрицы формата: По умолчанию
Параметры GOP формата: M=3, N=18
Продолжительность: 5 м. 14 с.
Вид битрейта: Переменный
Битрейт: 26,6 Мбит/сек
Номинальный битрейт: 8000 Кбит/сек
Ширина: 720 пикс.
Высота: 480 пикс.
Соотношение сторон: 16:9
Частота кадров: 29,970 кадр/сек
Стандарт вещания: NTSC
Цветовое пространство: YUV
Подвыборка цветности: 4:2:0
Битовая глубина: 8 бит
Тип развёртки: Прогрессивная
Метод сжатия: С потерями
Бит/(Пиксели*Кадры): 2.565
Размер потока: 995 Мбайт (97%)
Библиотека кодирования: TMPGEnc DVD Author 3 Version. 3.1.2.176

Аудио
Идентификатор: 128 (0x80)
Формат: AC-3
Формат/Информация: Audio Coding 3
Расширение режима: CM (complete main)
Продолжительность: 5 м. 14 с.
Вид битрейта: Постоянный
Битрейт: 224 Кбит/сек
Канал(ы): 2 канала(ов)
Расположение каналов: Front: L R
Частота: 48,0 КГц
Битовая глубина: 16 бит
Метод сжатия: С потерями
Размер потока: 8,39 Мбайт (1%)

Меню













[b]Поделиться:




реклама партнёра


Вернуться к началу
 Профиль  
 
   Похожие торренты   Автор   Торрент   Размер 
В этой теме нет новых непрочитанных сообщений. Within Temptation: Let Us Burn - Elements & Hydra Live In Concert [Symphonic Metal, Gothic Rock, Power Metal, 2014] BDRemux 1080i

Dracon

32 | 8

20.63 ГБ

В этой теме нет новых непрочитанных сообщений. Сборник клипов - Monsters of Metal Vol. 10 [2016, Black Metal, Death Metal, Gothic, WEBRip]

salma3

181 | 14

7.01 ГБ

В этой теме нет новых непрочитанных сообщений. Nightwish - Endless Forms Most Beautiful [2015, Gothic Metal, Symphonic Power Metal, MP3]

salma3

0 | 0

180.62 МБ

В этой теме нет новых непрочитанных сообщений. Fabiane Thompson and Angel Lima [2014 г., All Sex, Anal, Big tits, Asslicking, Threesome (FFM), SiteRip]

salma3

7 | 2

456.3 МБ

В этой теме нет новых непрочитанных сообщений. Лима: Сорвавшиеся с цепи / Lima: Breaking the Silence [Триллер, драма, криминал, 1999] DVDRip, Avo

salma3

11 | 4

1020.73 МБ

В этой теме нет новых непрочитанных сообщений. Cradle Of Filth - Hammer Of The Witches [Digipak Edition] [2015, Extreme Gothic Metal, MP3]

salma3

0 | 0

158.45 МБ

В этой теме нет новых непрочитанных сообщений. Cinderella - Stripped [Live] (Hard Rock, Glam Metal. 2014) MP3

Aleksandr.ru

98 | 12

182.42 МБ


Начать новую тему Ответить на тему  [ 1 сообщение ] 




Для Мосгорсуда, Роскомнадзора и рекламодателей:: mosgorsud-torrent[собачка]yandex.ru