Торрент файл
скачать торрент магнет ссылка Добавлен: 08 янв 2012, 12:02
Размер: 4.04 ГБ
Сидеров: 5
Личеров: 5
Автор

СообщениеДобавлено: 08 янв 2012, 12:02 

Не в сети
Зам. Админа
Аватара пользователя
Дата регистрации:
02 дек 2010, 12:39
Спасибо: 12461 / 214
Сообщения: 27968
Nightwish - From Wishes To Eternity - Live

Формат: DVD5, DVD Video, MPEG2, AC3
Песня: From Wishes To Eternity - Live
Жанр: Sympho Metal
Продолжительность: 02:30:00
Год выпуска: 2001
Видео: MPEG 2 VIDEO, 720*576( PAL 16:9), 25.00 fps, 4441 kbps avg, 0 .428 bit/pixel
Аудио: 48,0 khz, AC 3, 6 ch, 448 kbps avg
Доп. информация: Концерт,состоявшийся 29.12.2000, в Тампере, Финляндия. Дополнительно: интервью с Tarja, Tuomas, видеоклипы - Carpenter, Sleeping Sun, Kinslayer (live in Buenos Aires), Walking in the Air ( live in Montreal),фотогалерея, съёмки за кулисами.
    Состав:Tarja Turunen - vocals
    Emppu Vuorinen - guitars
    Tuomas Holopainen - keyboards
    Sami Vanska - bass
    Jukka Nevelainen - drums

    Guests:
    Tapio Wilska (Finntroll) on track 04
    Tony Kakko (Sonata Arctica) on track 14
    Треклист:
    1. The Kinslayer
    2. She Is My Sin
    3. Deep Silent Complete
    4. The Pharaoh Sails To Orion
    5. Come Cover Me
    6. Wanderlust
    7. Instrumental (Crimson Tide, Deep Blue Sea)
    8. Swanheart
    9. Elvenpath
    10. FantasMic part 3
    11. Dead Boy's Poem
    12. Sacrament Of Wilderness
    13. Walking In The Air
    14. Beauty And The Beast
    15. Wishmaster
Title: From Wishes To Eternity - Live
Size: 4.04 Gb ( 4 239 888,00 KBytes ) - DVD-5
Enabled regions: 1, 2, 3, 4, 5, 6

VTS_01 :
Play Length: 00:00:16+{00:00:16}
Video: PAL 16:9 (720x576) VBR, Auto Pan&Scan, Auto Letterboxed
Audio:
English (Dolby AC3, 2 ch)
English (Dolby AC3, 6 ch)

VTS_02 :
Play Length: 01:19:55+{01:19:55}
Video: PAL 16:9 (720x576) VBR, Auto Pan&Scan, Auto Letterboxed
Audio:
English, AC3, 3/2 (L,C,R,SL,SR)+LFE ch, 448 kbps, Delay 160 mSec

VTS_03 :
Play Length: 00:07:06
Video: PAL 16:9 (720x576) VBR, Auto Pan&Scan, Auto Letterboxed
Audio:
English (Dolby AC3, 2 ch)
Subtitles:
English

VTS_04 :
Play Length: 00:04:01
Video: PAL 16:9 (720x576) VBR, Auto Pan&Scan, Auto Letterboxed
Audio:
English (Dolby AC3, 2 ch)

VTS_05 :
Play Length: 00:05:00+{00:05:00}
Video: PAL 4:3 (720x576) VBR
Audio:
English (Dolby AC3, 2 ch)

VTS_06 :
Play Length: 00:04:47+{00:04:47}
Video: PAL 4:3 (720x576) VBR
Audio:
English (Dolby AC3, 2 ch)

VTS_07 :
Play Length: 00:05:14+{00:05:14}
Video: PAL 4:3 (720x576) VBR
Audio:
English (Dolby AC3, 2 ch)

VTS_08 :
Play Length: 00:05:11+{00:05:11}
Video: PAL 4:3 (720x576) VBR
Audio:
English (Dolby AC3, 2 ch)

VTS_09 :
Play Length: 00:26:35
Video: PAL 4:3 (720x576) VBR
Audio:
English (Dolby AC3, 2 ch)
Subtitles:
English
Общее
Полное имя: D:\Video\Nightwish\From Wishes To Eternity - Live\VIDEO_TS\VTS_02_1.VOB
Формат: MPEG-PS
Размер файла: 1024 Мбайт
Продолжительность: 28 м.
Общий поток: 4988 Кбит/сек

Видео
Идентификатор: 224 (0xE0)
Формат: MPEG Video
Версия формата: Version 2
Профиль формата: Main@Main
Параметр BVOP формата: Да
Параметр матрицы формата: По умолчанию
Параметры GOP формата: M=3, N=15
Продолжительность: 28 м.
Вид битрейта: Переменный
Битрейт: 4441 Кбит/сек
Номинальный битрейт: 6000 Кбит/сек
Ширина: 720 пикс.
Высота: 576 пикс.
Соотношение сторон: 16:9
Частота кадров: 25,000 кадр/сек
Стандарт вещания: PAL
Цветовое пространство: YUV
Подвыборка цветности: 4:2:0
Битовая глубина: 8 бит
Тип развёртки: Чересстрочная
Порядок развёртки: Верхнее поле первое
Метод сжатия: С потерями
Бит/(Пиксели*Кадры): 0.428
Размер потока: 912 Мбайт (89%)

Аудио
Идентификатор: 128 (0x80)
Формат: AC-3
Формат/Информация: Audio Coding 3
Расширение режима: CM (complete main)
Продолжительность: 28 м.
Вид битрейта: Постоянный
Битрейт: 448 Кбит/сек
Канал(ы): 6 канала(ов)
Расположение каналов: Front: L C R, Side: L R, LFE
Частота: 48,0 КГц
Битовая глубина: 16 бит
Метод сжатия: С потерями
Задержка видео: 80 мс.
Размер потока: 91,9 Мбайт (9%)

Меню


















[b]Поделиться:




реклама партнёра


Вернуться к началу
 Профиль  
 
   Похожие торренты   Автор   Торрент   Размер 
В этой теме нет новых непрочитанных сообщений. Rhapsody Of Fire - Live From Chaos To Eternity (Live, 2CD) [2013, Symphonic Power Metal, MP3]

PriZraK

0 | 1

251.92 МБ

В этой теме нет новых непрочитанных сообщений. Nightwish - Showtime, Storytime (2CD, Live) [2013, Symphonic Power Metal, MP3]

PriZraK

29 | 3

220.46 МБ

В этой теме нет новых непрочитанных сообщений. Nightwish - Endless Forms Most Beautiful [3CD Earbook Edition] [2015, Power Metal, Symphonic Metal, MP3]

Nickolas3435

233 | 35

515.68 МБ

В этой теме нет новых непрочитанных сообщений. Nightwish - Endless Forms Most Beautiful [3CD Earbook Edition] [2015, Power Metal, Symphonic Metal, FLAC]

Nickolas3435

86 | 9

1.52 ГБ

В этой теме нет новых непрочитанных сообщений. Sad Alice Said - Clock Of Eternity (EP) [2011, Symphonic Metal , Gothic Heavy Metal, MP3]

PriZraK

0 | 1

56.06 МБ

В этой теме нет новых непрочитанных сообщений. Rhapsody Of Fire - From Chaos To Eternity [2011, Symphonic Metal,Orchestral Power Metal, MP3]

PriZraK

0 | 1

141.84 МБ

В этой теме нет новых непрочитанных сообщений. Nightwish - Walking In The Air: The Greatest Ballads [2011, Symphonic Power Metal, MP3]

PriZraK

10 | 3

155.29 МБ


Начать новую тему Ответить на тему  [ 1 сообщение ] 




Для Мосгорсуда, Роскомнадзора и рекламодателей:: mosgorsud-torrent[собачка]yandex.ru