Торрент файл
скачать торрент магнет ссылка Добавлен: 08 янв 2012, 12:02
Размер: 3.92 ГБ
Сидеров: 0
Личеров: 9
Автор

СообщениеДобавлено: 08 янв 2012, 12:02 

Не в сети
Зам. Админа
Аватара пользователя
Дата регистрации:
02 дек 2010, 12:39
Спасибо: 12559 / 214
Сообщения: 28075
Nightwish - Live In Minneapolis

Формат: CamRip, DVD Video, MPEG2, AC3
Песня: Live In Minneapolis
Жанр: Symphonic Metal
Продолжительность: 01:29:06
Год выпуска: 2004
Видео: MPEG 2 VIDEO, 704*480( NTSC 4:3), 29.97 fps, 5882 kbps avg,0.581 bit/pixel
Аудио: 48.0 khz, AC-3, 2 ch, 256 kbps avg
Доп. информация: Концерт, состоявшийся 26 августа 2004 года, в Миннеаполисе, Миннесота, США.
    Состав:Tarja Turunen - vocals
    Emppu Vuorinen - guitars
    Marco Hietala - bass, vocals
    Jukka Nevalainen - drums
    Tuomas Holopainen - keyboards
    Треклист:01. Intro
    02. Dark Chest of Wonders
    03. Planet Hell
    04. Come Cover Me
    05. Phantom of The Opera
    06. Dead to The World
    07. Nemo
    08. Sleeping Sun
    09. Symphony of Destruction
    10. Bless The Child
    11. Ever Dream
    12. Higher Than Hope
    13. Wishmaster
    14. Over The Hills
    15. Dead Boy`s Poem
    16. Slaying The Dreamer
    17. Wish I Had An Angel
    18. Outro
Title: Nightwish - Live In Minneapolis, Minnesota, USA (2004)
Size: 3.92 Gb ( 4 113 928,00 KBytes ) - DVD-5
Enabled regions: 1, 2, 3, 4, 5, 6, 7, 8

VTS_01 :
Play Length: 01:29:00
Video: NTSC 4:3 (704x480) VBR
Audio:
Not specified, AC3, 2/0 (L,R) ch, 256 kbps, Delay 0 mSec

Общее
Полное имя: D:\Torrents\Download\Nightwish - Live In Minneapolis, Minnesota, USA (2004)\VIDEO_TS\VTS_01_1.VOB
Формат: MPEG-PS
Размер файла: 1024 Мбайт
Продолжительность: 22 м.
Общий поток: 6263 Кбит/сек

Видео
Идентификатор: 224 (0xE0)
Формат: MPEG Video
Версия формата: Version 2
Профиль формата: Main@Main
Параметр BVOP формата: Да
Параметр матрицы формата: По умолчанию
Параметры GOP формата: M=3, N=15
Продолжительность: 22 м.
Вид битрейта: Переменный
Битрейт: 5882 Кбит/сек
Номинальный битрейт: 9558 Кбит/сек
Ширина: 704 пикс.
Высота: 480 пикс.
Соотношение сторон: 4:3
Частота кадров: 29,970 кадр/сек
Стандарт вещания: NTSC
Цветовое пространство: YUV
Подвыборка цветности: 4:2:0
Битовая глубина: 8 бит
Тип развёртки: Чересстрочная
Порядок развёртки: Верхнее поле первое
Метод сжатия: С потерями
Бит/(Пиксели*Кадры): 0.581
Размер потока: 962 Мбайт (94%)

Аудио
Идентификатор: 128 (0x80)
Формат: AC-3
Формат/Информация: Audio Coding 3
Расширение режима: CM (complete main)
Продолжительность: 22 м.
Вид битрейта: Постоянный
Битрейт: 256 Кбит/сек
Канал(ы): 2 канала(ов)
Расположение каналов: Front: L R
Частота: 48,0 КГц
Битовая глубина: 16 бит
Метод сжатия: С потерями
Задержка видео: -67 мс.
Размер потока: 41,9 Мбайт (4%)

Меню








[b]Поделиться:




реклама партнёра


Вернуться к началу
 Профиль  
 
   Похожие торренты   Автор   Торрент   Размер 
В этой теме нет новых непрочитанных сообщений. Nightwish - Showtime, Storytime (2CD, Live) [2013, Symphonic Power Metal, MP3]

PriZraK

29 | 3

220.46 МБ

В этой теме нет новых непрочитанных сообщений. Nightwish - Endless Forms Most Beautiful [2015, Gothic Metal, Symphonic Power Metal, MP3]

salma3

0 | 0

180.62 МБ

В этой теме нет новых непрочитанных сообщений. Nightwish - Endless Forms Most Beautiful [3CD Earbook Edition] [2015, Power Metal, Symphonic Metal, MP3]

Nickolas3435

235 | 35

515.68 МБ

В этой теме нет новых непрочитанных сообщений. Nightwish - Endless Forms Most Beautiful [3CD Earbook Edition] [2015, Power Metal, Symphonic Metal, FLAC]

Nickolas3435

86 | 9

1.52 ГБ

В этой теме нет новых непрочитанных сообщений. Nightwish - The Crow, The Owl And The Dove (Single) [02.2012, Symphonic Power Metal, MP3]

PriZraK

1 | 3

52.61 МБ

В этой теме нет новых непрочитанных сообщений. Nightwish - Imaginaerum (Limited Edition) [2011, Symphonic Power Metal, MP3]

PriZraK

33 | 3

340.7 МБ

В этой теме нет новых непрочитанных сообщений. Nightwish - Walking In The Air: The Greatest Ballads [2011, Symphonic Power Metal, MP3]

PriZraK

10 | 3

155.29 МБ


Начать новую тему Ответить на тему  [ 1 сообщение ] 




Для Мосгорсуда, Роскомнадзора и рекламодателей:: mosgorsud-torrent[собачка]yandex.ru