Торрент файл
скачать торрент магнет ссылка Добавлен: 08 янв 2012, 12:01
Размер: 1.55 ГБ
Сидеров: 2
Личеров: 4
Автор

СообщениеДобавлено: 08 янв 2012, 12:01 

Не в сети
Зам. Админа
Аватара пользователя
Дата регистрации:
02 дек 2010, 12:39
Спасибо: 12623 / 214
Сообщения: 28012
Nightwish - From Wishes To Eternity - Live

Формат: DVDRip, AVI, DivX, MP3
Песня: From Wishes To Eternity - Live
Жанр: Symphonic Metal
Продолжительность: 01:20:00
Год выпуска: 2001
Видео: DivX MPEG 4, 720*480, (NTSC 4:3), 25.0 fps, 2498 kbps, 0,289bit/pixel
Аудио: 48,0 khz, MP 3, 2 ch, 256 kbps avg
Доп. информация: Концерт, состоявшийся 29.12.2000, в Тампере, Финляндия.
    Треклист:1. The Kinslayer
    2. She Is My Sin
    3. Deep Silent Complete
    4. The Pharaoh Sails To Orion
    5. Come Cover Me
    6. Wanderlust
    7. Instrumental (Crimson Tide, Deep Blue Sea)
    8. Swanheart
    9. Elvenpath
    10. FantasMic part 3
    11. Dead Boy's Poem
    12. Sacrament Of Wilderness
    13. Walking In The Air
    14. Beauty And The Beast
    15. Wishmaster
Общее
Полное имя: D:\Torrents\Download\Nightwish - From Wishes To Eternity Live.avi
Формат: AVI
Формат/Информация: Audio Video Interleave
Профиль формата: OpenDML
Размер файла: 1,55 Гбайт
Продолжительность: 1 ч. 20 м.
Общий поток: 2765 Кбит/сек
Программа кодирования: Lavf51.12.1

Видео
Идентификатор: 0
Формат: MPEG-4 Visual
Профиль формата: Simple@L1
Параметр BVOP формата: Нет
Параметр QPel формата: Нет
Параметр GMC формата: Без точки перехода
Параметр матрицы формата: Default (H.263)
Идентификатор кодека: DX50
Идентификатор кодека/Подсказка: DivX 5
Продолжительность: 1 ч. 19 м.
Битрейт: 2498 Кбит/сек
Ширина: 720 пикс.
Высота: 480 пикс.
Соотношение сторон: 4:3
Частота кадров: 25,000 кадр/сек
Стандарт вещания: NTSC
Цветовое пространство: YUV
Подвыборка цветности: 4:2:0
Битовая глубина: 8 бит
Тип развёртки: Прогрессивная
Метод сжатия: С потерями
Бит/(Пиксели*Кадры): 0.289
Размер потока: 1,39 Гбайт (90%)
Библиотека кодирования: Lavc51.40.4

Аудио
Идентификатор: 1
Формат: MPEG Audio
Версия формата: Version 1
Профиль формата: Layer 3
Режим: Joint stereo
Идентификатор кодека: 55
Идентификатор кодека/Подсказка: MP3
Продолжительность: 1 ч. 20 м.
Вид битрейта: Постоянный
Битрейт: 256 Кбит/сек
Канал(ы): 2 канала(ов)
Частота: 48,0 КГц
Метод сжатия: С потерями
Размер потока: 146 Мбайт (9%)
Выравнивание: Соединение по промежуткам
Продолжительность промежутка: 24мс. (0,60 видеокадр)
Время предзагрузки промежутка: 24 ms
Библиотека кодирования: LAME3.97







[b]Поделиться:




реклама партнёра


Вернуться к началу
 Профиль  
 
   Похожие торренты   Автор   Торрент   Размер 
В этой теме нет новых непрочитанных сообщений. Nightwish - Endless Forms Most Beautiful [2015, Gothic Metal, Symphonic Power Metal, MP3]

salma3

0 | 0

180.62 МБ

В этой теме нет новых непрочитанных сообщений. Nightwish - Endless Forms Most Beautiful [3CD Earbook Edition] [2015, Power Metal, Symphonic Metal, MP3]

Nickolas3435

233 | 35

515.68 МБ

В этой теме нет новых непрочитанных сообщений. Nightwish - Endless Forms Most Beautiful [3CD Earbook Edition] [2015, Power Metal, Symphonic Metal, FLAC]

Nickolas3435

86 | 9

1.52 ГБ

В этой теме нет новых непрочитанных сообщений. Within Temptation: Let Us Burn - Elements & Hydra Live In Concert [Symphonic Metal, Gothic Rock, Power Metal, 2014] BDRemux 1080i

Dracon

32 | 8

20.63 ГБ

В этой теме нет новых непрочитанных сообщений. Книга желаний / Holiday Wishes [Фэнтези, драма, семейный, 2006] DVDRip, Mvo

salma3

82 | 14

1.37 ГБ

В этой теме нет новых непрочитанных сообщений. Dragon Eternity [19.4.16] [RPG, MMO, 2013] [Лицензия]

holokofi

0 | 1

552.35 МБ

В этой теме нет новых непрочитанных сообщений. [PureMature.com] Brett Rossi - Champagne Wishes (28.08.2016) [2016 г., Mature, Big Tits, All Sex, 720p]

salma3

5 | 1

659.35 МБ


Начать новую тему Ответить на тему  [ 1 сообщение ] 




Для Мосгорсуда, Роскомнадзора и рекламодателей:: mosgorsud-torrent[собачка]yandex.ru