Торрент файл
скачать торрент магнет ссылка Добавлен: 08 янв 2012, 12:00
Размер: 3.76 ГБ
Сидеров: 19
Личеров: 8
Автор

СообщениеДобавлено: 08 янв 2012, 12:00 

Не в сети
Зам. Админа
Аватара пользователя
Дата регистрации:
02 дек 2010, 12:39
Спасибо: 12461 / 214
Сообщения: 27968
Frank Duval - Angel Of Mine

Формат: DVD5, DVD Video, MPEG2, AC3
Песня: Angel Of Mine
Жанр: Pop
Продолжительность: 02:49:15
Год выпуска: 1979-2002
Страна: Германия

Видео: 720х480 (NTSC 4:3), 29,970 fps, MPEG-2, ~2801 kbps avg, 0.270 bit/pixel
Аудио: 48 kHz, AC-3, 2 ch, 192.00 kbps avg

Доп. информация: В шестидесятых Франк Дюваль начинает сочинять собственную музыку. В 1977 году состоялась его дебютная работа для немецкого телевизионного сериала «Tatort».
В семидесятых Франк Дюваль был загружен работой композитора, но все же находил в себе силы для сольного творчества, которое явилось миру на его дебютном альбоме «Die Schunsten Melodien Aus Derrick und der Alte», выпущенном в 1979 году лейблом «Teldec».
В течение восьмидесятых Франк Дюваль продолжал записываться для «Teldec», а также записал несколько звуковых дорожек для различных кинолент.
Франк Дюваль не единожды пребывал в немецких чартах, доказательством служат его бессмертные хиты: «Ways» (1983), «Lovers Will Survive» (1986) и «When You Were Mine» (1987)….

01 Touch My Soul
02 It Was Love (Live)
03 Living Like A Cry
04 Angel Of Mine (Live)
05 Touch my Soul...
06 Give me your love
07 Help me
08 Der sarg
09 Liebe und Tod
10 Angel Of Mine
11 Akordeon
12 La Rosa
13 Ways
14 Stranger
15 What A Day
16 Bollywood-Dance on Fire
17 Children Of Our Time
18 Give me your love
19 Verlassen
20 Love (in Derrick)
21 Wenn ich dich
22 La Chiave (in Derrick)
23 Passionada
24 Lonesome
25 Flying
26 Lovers Will Survive
27 Give Me Your Love
28 Closer to Heaven
29 Mysterious Girl
30 Life will go on
31 Lord
32 Give Me Your Love 2

Общее
Формат: MPEG-PS
Общий поток: 3054 Кбит/сек

Видео
Идентификатор: 224 (0xE0)
Формат: MPEG Video
Версия формата: Version 2
Профиль формата: Main@Main
Параметр BVOP формата: Да
Параметр матрицы формата: По умолчанию
Параметры GOP формата: M=3, N=18
Вид битрейта: Переменный
Битрейт: 2801 Кбит/сек
Номинальный битрейт: 8000 Кбит/сек
Ширина: 720 пикс.
Высота: 480 пикс.
Соотношение сторон: 4:3
Частота кадров: 29,970 кадр/сек
Стандарт вещания: NTSC
Цветовое пространство: YUV
Подвыборка цветности: 4:2:0
Битовая глубина: 8 бит
Тип развёртки: Прогрессивная
Метод сжатия: С потерями
Бит/(Пиксели*Кадры): 0.270
Размер потока: 939 Мбайт (92%)

Аудио
Идентификатор: 128 (0x80)
Формат: AC-3
Формат/Информация: Audio Coding 3
Расширение режима: CM (complete main)
Вид битрейта: Постоянный
Битрейт: 192 Кбит/сек
Канал(ы): 2 канала(ов)
Расположение каналов: Front: L R
Частота: 48,0 КГц
Битовая глубина: 16 бит
Метод сжатия: С потерями
Размер потока: 64,4 Мбайт (6%)












Поделиться:




реклама партнёра


Вернуться к началу
 Профиль  
 
   Похожие торренты   Автор   Торрент   Размер 
В этой теме нет новых непрочитанных сообщений. Frank Duval - Greatest Hits (2CD) [2012, Pop, Rock, MP3]

PriZraK

0 | 2

370.46 МБ

В этой теме нет новых непрочитанных сообщений. Angelmania 4 / Ангелмания 4 (Laura Angel, Metro) [2002 г., All Sex, Gonzo, DP, DVDRip, 480p]

killerslava

5 | 4

2.18 ГБ

В этой теме нет новых непрочитанных сообщений. Straight Frank - Straight Frank [2012, Alternative Rock,Hard Rock, MP3]

PriZraK

0 | 1

84.23 МБ

В этой теме нет новых непрочитанных сообщений. За нас двоих / A nous deux [мелодрама, криминал, 1979] DVD5, Mvo+Sub

salma3

2 | 4

4.36 ГБ

В этой теме нет новых непрочитанных сообщений. POV Punx 8: Teenage Sluts / Принцессы Панка, Вид От Первого Лица 8 (Joanna Angel, Burning Angel) [2013 г., All Sex, Anal, DVDRip 396p]

Mitya495

164 | 25

1.76 ГБ

В этой теме нет новых непрочитанных сообщений. Angel - Angel [1992, Hard Rock, MP3]

PriZraK

0 | 1

94.53 МБ

В этой теме нет новых непрочитанных сообщений. Женщина в черном 2: Ангел смерти / The Woman in Black 2: Angel of Death (Том Харпер) [ужасы, триллер, драма, 2014] DVD5, Dub [Лицензия]

Dracon

71 | 14

3.94 ГБ


Начать новую тему Ответить на тему  [ 1 сообщение ] 




Для Мосгорсуда, Роскомнадзора и рекламодателей:: mosgorsud-torrent[собачка]yandex.ru