Торрент файл
скачать торрент магнет ссылка Добавлен: 08 янв 2012, 12:00
Размер: 5.71 ГБ
Сидеров: 0
Личеров: 5
Автор

СообщениеДобавлено: 08 янв 2012, 12:00 

Не в сети
Зам. Админа
Аватара пользователя
Дата регистрации:
02 дек 2010, 12:39
Спасибо: 12625 / 214
Сообщения: 28010
Ozzy Osbourne - Bark At The Moon

Формат: DVD 9, DVD Video, MPEG 2, AC 3
Песня: Bark At The Moon
Жанр: Hard Rock
Продолжительность: 01:14:13
Год выпуска: 2009
Видео: MPEG 2 VIDEO, 720*480, (NTSC 4:3), 29.97 fps, 9500 kbps avg, 0,917 bit/pixel
Аудио: 48.0 khz, AC-3, 2 ch, 256 kbps avg
Доп. информация: Концерт, состоявшийся в 1984 году,Солт Лейк Сити, Юта, США. Девятка выпущена в 2009 году.
    Состав: Ozzy Osbourne - vocals
    Jake E. Lee - guitar
    Bob Daisley - bass
    Don Airey - keyboards
    Tommy Aldridge - drums
    Треклист:
    01. I Don't Know
    02. Mr. Crowley
    03. Rock & Roll Rebel
    04. Bark At The Moon
    05. Revelation
    06. Steal Away
    07. Suicide Solution
    08. Forever (Centre Of Eternity)
    09. Flying High Again
    10. Iron Man
    11. Crazy Train
    12. Paranoid
Title: Ozzy Osbourne - Bark At The Moon
Size: 5.71 Gb ( 5 984 050,00 KBytes ) - DVD-9
Enabled regions: 1, 2, 3, 4, 5, 6, 7, 8

VTS_01 :
Play Length: 00:10:00
Video: NTSC 4:3 (720x480) VBR
Audio:
English (Dolby AC3, 2 ch)

VTS_02 :
Play Length: 01:14:13
Video: NTSC 4:3 (720x480) VBR
Audio:
English, AC3, 2/0 (L,R) ch, 256 kbps, Delay 0 mSec

* Menus Information *

VIDEO_TS Menu
Video:
NTSC 4:3 (720x480) VBR
Audio:
Not specified (Dolby AC3, 2 ch)
English Language Unit :
Title Menu

VTS_01 Menu
Video:
NTSC 4:3 (720x480) VBR
Auto Pan&Scan, Auto Letterboxed
English Language Unit :
Root Menu

VTS_02 Menu
Video:
NTSC 4:3 (720x480) VBR
Audio:
Not specified (Dolby AC3, 2 ch)
English Language Unit :
Root Menu
Общее
Полное имя: D:\Torrents\Download\Ozzy Osbourne - Bark At The Moon\VIDEO_TS\VTS_02_1.VOB
Формат: MPEG-PS
Размер файла: 1024 Мбайт
Продолжительность: 14 м.
Общий поток: 9550 Кбит/сек
Библиотека кодирования: (c) 1997-2004 Womble Multimedia, Inc. / MPEG-VCR V3.14 (05/2004) / Jun2 2004

Видео
Идентификатор: 224 (0xE0)
Формат: MPEG Video
Версия формата: Version 2
Профиль формата: Main@Main
Параметр BVOP формата: Да
Параметр матрицы формата: По умолчанию
Продолжительность: 14 м.
Вид битрейта: Переменный
Битрейт: 9500 Кбит/сек
Ширина: 720 пикс.
Высота: 480 пикс.
Соотношение сторон: 4:3
Частота кадров: 29,970 кадр/сек
Стандарт вещания: NTSC
Цветовое пространство: YUV
Подвыборка цветности: 4:2:0
Битовая глубина: 8 бит
Тип развёртки: Чересстрочная
Порядок развёртки: Верхнее поле первое
Метод сжатия: С потерями
Бит/(Пиксели*Кадры): 0.917
Размер потока: 976 Мбайт (95%)
Библиотека кодирования: (c) 1997-2004 Womble Multimedia, Inc. / MPEG-VCR V3.14 (05/2004) / Jun2 2004

Аудио
Идентификатор: 128 (0x80)
Формат: AC-3
Формат/Информация: Audio Coding 3
Расширение режима: CM (complete main)
Продолжительность: 14 м.
Вид битрейта: Постоянный
Битрейт: 256 Кбит/сек
Канал(ы): 2 канала(ов)
Расположение каналов: Front: L R
Частота: 48,0 КГц
Битовая глубина: 16 бит
Метод сжатия: С потерями
Размер потока: 27,4 Мбайт (3%)

Меню









[b]Поделиться:




реклама партнёра


Вернуться к началу
 Профиль  
 
   Похожие торренты   Автор   Торрент   Размер 
В этой теме нет новых непрочитанных сообщений. Regina Moon / Fucking On The Moon (2011) HD 1080p

Dile-1

2 | 8

395.69 МБ

В этой теме нет новых непрочитанных сообщений. Сборник - Русский Рок Золотой [2014, Rock, Classic Rock, Soft Rock, Hard Rock, MP3]

Nickolas3435

457 | 26

935.39 МБ

В этой теме нет новых непрочитанных сообщений. Sophie Sweet (Sophie Moon) ТОЛЬКО HARD SEX ВИДЕО (10 гетеросексуальных роликов) (Обновлено! 14.12.2016) [Anal; Oral; All sex]

salma3

13 | 4

2.03 ГБ

В этой теме нет новых непрочитанных сообщений. [ScoreHD.com (PornMegaLoad.com) / 40SomethingMag.com] Natalie Moon (Once in a blue moon, Natalie gets ass-fucked on-camera) [2017 г., MILF, Anal, 1080p]

salma3

32 | 11

1.26 ГБ

В этой теме нет новых непрочитанных сообщений. Сборник - The Original Rock Meets Classic [2 CD] [2014, Rock, Hard Rock, FLAC]

Nickolas3435

186 | 11

1.05 ГБ

В этой теме нет новых непрочитанных сообщений. [ChicasLoca.com / PornDoePremium.com] Tyra Moon - Hungarian babe Tyra Moon rides thick cock and eats cum outdoors by the pool (2017-08-28, Blowjob, All Sex, IR, 240p]

salma3

31 | 10

181.48 МБ

В этой теме нет новых непрочитанных сообщений. Alana Moon - Hot Hitchhiker Alana Moon Gets a Creampie (2016) HD 1080p

salma3

5 | 11

596.93 МБ


Начать новую тему Ответить на тему  [ 1 сообщение ] 




Для Мосгорсуда, Роскомнадзора и рекламодателей:: mosgorsud-torrent[собачка]yandex.ru