Торрент файл
скачать торрент магнет ссылка Добавлен: 08 янв 2012, 11:54
Размер: 2.83 ГБ
Сидеров: 1
Личеров: 8
Автор

СообщениеДобавлено: 08 янв 2012, 11:54 

Не в сети
Зам. Админа
Аватара пользователя
Дата регистрации:
02 дек 2010, 12:39
Спасибо: 12461 / 214
Сообщения: 27968
VA - Лучшее от Ello Vol.3

Формат: DVD5, DVD Video, MPEG2, AC3
Песня: Лучшее от Ello Vol.3
Жанр: Pop
Продолжительность: 02:04:46
Год выпуска: 2011

Видео: 720x576 (PAL 4:3), 25 fps, MPEG-2, ~46,2 Mbps avg, 4.454 bit/pixel
Аудио: 48 kHz, AC-3, 2 ch, 192.00 kbps avg

Доп. информация: Материал взят с канала Ello - который представляет в свою очередь новинки как российской так и зарубежной попсы. Отличный профессиональный музыкальный канал и даже стоп кадры на всех видео выставлены очень правильно. Здесь можно увидеть как звезд так и совершенно молодых исполнителей. Предлагаю Вашему вниманию третью подбороку с этого канала.
01 МакSим - Весна
02 Кристина Орбакайте - Хватит шоу
03 Банд'Эрос - Не под этим солнцем
04 SEREBRO - Скажи не молчи
05 Ёлка - Прованс
06 Нэлли Мотяева - Под крылом ветра
07 Reflex - Сколько лет сколько зим
08 РИ - Без него
09 Зара - Амели
10 Лавика - Счастье цвета платины
11 Денис Майданов - Время наркотик
12 Тимур Родригез - О тебе
13 Глюк'oZa - Хочу мужчину
14 Вера Брежнева - Любовь спасет мир (Ремикс)
15 Инь-Ян — Пофиг
16 Валерий Меладзе — Параллельные
17 Ахра - Карие глаза
18 Нюша - Больно
19 DJ Smash pres.Fast Food - Волна
20 БИС - Твой или ничей
21 Винтаж - Микки
22 Бьянка - За тобой
23 Ева Польна - Миражи
24 Слава - Одиночество
25 Валерия - Капелькою
26 Юлия Савичева - Москва-Владивосток
27 Беретта - Женщина
28 Наталья Могилевская - Изменница
29 Чи-Ли — Сердце
30 Инфинити - Когда уйдешь
31 Кирилл Марена - Без тебя
32 Океан Эльзы - Я так хочу

Общее
Формат: MPEG-PS
Общий поток: 47,3 Мбит/сек

Видео
Идентификатор: 224 (0xE0)
Формат: MPEG Video
Версия формата: Version 2
Профиль формата: Main@Main
Параметр BVOP формата: Да
Параметр матрицы формата: По умолчанию
Параметры GOP формата: M=3, N=13
Вид битрейта: Переменный
Битрейт: 46,2 Мбит/сек
Номинальный битрейт: 9008 Кбит/сек
Ширина: 720 пикс.
Высота: 576 пикс.
Соотношение сторон: 4:3
Частота кадров: 25,000 кадр/сек
Стандарт вещания: PAL
Цветовое пространство: YUV
Подвыборка цветности: 4:2:0
Битовая глубина: 8 бит
Тип развёртки: Прогрессивная
Метод сжатия: С потерями
Бит/(Пиксели*Кадры): 4.454
Размер потока: 784 Мбайт (97%)

Аудио
Идентификатор: 128 (0x80)
Формат: AC-3
Формат/Информация: Audio Coding 3
Расширение режима: CM (complete main)
Вид битрейта: Постоянный
Битрейт: 192 Кбит/сек
Канал(ы): 2 канала(ов)
Расположение каналов: Front: L R
Частота: 48,0 КГц
Битовая глубина: 16 бит
Метод сжатия: С потерями
Задержка видео: -560 мс.
Размер потока: 3,27 Мбайт (0%)













Поделиться:




реклама партнёра


Вернуться к началу
 Профиль  
 
   Похожие торренты   Автор   Торрент   Размер 
В этой теме нет новых непрочитанных сообщений. Освенцим / Auschwitz [драма, 2011] DVD5, Mvo+Sub [лицензия]

Dracon

57 | 7

3.77 ГБ

В этой теме нет новых непрочитанных сообщений. Уловка .44 / Catch .44 [триллер, драма, криминал, 2011] DVD5, Mvo+Sub

salma3

10 | 8

4.37 ГБ

В этой теме нет новых непрочитанных сообщений. Многоэтажка / Небоскреб смерти / Tower Block [триллер, 2011] DVD5, Mvo+Sub

salma3

9 | 7

4.32 ГБ

В этой теме нет новых непрочитанных сообщений. Маленький убийца / Little Murder [триллер, драма, 2011] DVD5, Mvo [лицензия]

salma3

0 | 2

3.93 ГБ

В этой теме нет новых непрочитанных сообщений. Военные игры / War Games: At the End of the Day [Триллер, боевик, ужасы, 2011] DVD5, Mvo

salma3

15 | 11

4.35 ГБ

В этой теме нет новых непрочитанных сообщений. 12 Рождественских желаний / 12 Wishes of Christmas [фэнтези, комедия, 2011] DVD5, Mvo [лицензия]

salma3

48 | 7

3.92 ГБ

В этой теме нет новых непрочитанных сообщений. Последний час Земли / Earth's Final Hours [Фантастика, 2011] DVD5, Mvo [Лицензия]

salma3

41 | 14

4.01 ГБ


Начать новую тему Ответить на тему  [ 1 сообщение ] 




Для Мосгорсуда, Роскомнадзора и рекламодателей:: mosgorsud-torrent[собачка]yandex.ru