Торрент файл
скачать торрент магнет ссылка Добавлен: 08 янв 2012, 11:53
Размер: 3.86 ГБ
Сидеров: 1
Личеров: 5
Автор

СообщениеДобавлено: 08 янв 2012, 11:53 

Не в сети
Зам. Админа
Аватара пользователя
Дата регистрации:
02 дек 2010, 12:39
Спасибо: 12458 / 214
Сообщения: 27968
Kim Wilde - Video Collection 1981 - 2010

Формат: DVD5, DVD Video, MPEG2, AC3
Песня: Video Collection 1981 - 2010
Жанр: Pop
Продолжительность: 01:19:05
Год выпуска: 2010

Видео: 720x576 (PAL 4:3), 25 fps, MPEG-2, ~5645 kbps avg, 0.544 bit/pixel
Аудио: 48 kHz, AC-3, 2 ch, 192.00 kbps avg

Доп. информация: Kim Wilde (рус. Ким Уайлд настоящее имя- Kim Smith(18 ноября 1960, Лондон, Англия)) — английская поп-певица. Приобрела популярность в 1981 году, спев песню «Kids in America», которая в главном британском чарте «UK Singles Chart» поднялась на второе место. Успех в США получила из-за кавер-версии песни группы The Supremes «You keep me hangin' on», долгое время лидировавшей в американских хит-парадах. Начиная с 1998 года Уайлд занимается садоводством, сохраняя при этом активность на музыкальном поприще.
В основе этого релиза - выступления Kim Wilde в различных ТВ передачах Германии в период 1981 по 1984 год.
В бонусном разделе вы также найдёте совсем свежие выступления Kim: в Ганновере, на фестивале Expo Plaza в начале июня, а также в передачах ARD-Morgenmagazin, где артисты всегда поют лайв и, в основном, акустические версии своих хитов, и в уже хорошо вам известном ZDF Fernsehgarten в сентябре этого года.


Часть 1. Выступления в передаче Musikladen (Германия) 1981 - 1982
Продолжительность: 00:15:16
01. Kids In America (19.03.1981)
02. Chequered Love (04.06.1981)
03. Water On Glass (10.09.1981)
04. Cambodia (17.12.1981)
05. View From A Bridge (15.04.1982)

Часть 2. Выступления в других тв передачах Германии, клипы 1981 - 1987
Продолжительность: 00:31:40
06. Kids In America (Bananas, 23.06.1981)
07. Chequered Love (WWF Club, 1981)
08. Cambodia (Clip, 1981)
09. View From A Bridge (Bananas, 25.05.1982)
10. Child Come Away (Vorsicht Musik!, 13.12.1982)
11. Love Blonde (Bananas, 06.09.1983)
12. The Second Time (Bananas, 02.10.1984)
13. You Keep Me Hanging On (Clip, 1987)
14. Kids In America (disco, 18.05.1981)

Часть 3. Bonus Videos 1992 - 2010
Продолжительность: 00:33:09
15. Who Do You Think You Are? (Ein Kessel Buntes, 1992, фрагмент)
16. You Came (live auf der Vinyl-Bühne im Bremer Aladin, 2007 )
17. Cambodia (Night Of The Proms, 200
18. View From A Bridge (Expo Plaza Party, Hannover, 04.06.2010)
19. Cambodia (Expo Plaza Party, Hannover, 04.06.2010)
20. You Keep Me Hanging On (Expo Plaza Party, Hannover, 04.06.2010)
21. Kids In America (Expo Plaza Party, Hannover, 04.06.2010)
22. Lights Down Low (live, acoustic version, ARD-Morgenmagazin, 01.09.2010 )
23. Lights Down Low (ZDF Fernsehgarten, 05.09.2010 )

Общее
Формат: MPEG-PS
Размер файла: 651 Мбайт
Общий поток: 5956 Кбит/сек

Видео
Идентификатор: 224 (0xE0)
Формат: MPEG Video
Версия формата: Version 2
Профиль формата: Main@Main
Параметр BVOP формата: Да
Параметр матрицы формата: По умолчанию
Параметры GOP формата: M=3, N=15
Вид битрейта: Переменный
Битрейт: 5645 Кбит/сек
Номинальный битрейт: 9641 Кбит/сек
Ширина: 720 пикс.
Высота: 576 пикс.
Соотношение сторон: 4:3
Частота кадров: 25,000 кадр/сек
Стандарт вещания: PAL
Цветовое пространство: YUV
Подвыборка цветности: 4:2:0
Битовая глубина: 8 бит
Тип развёртки: Чересстрочная
Порядок развёртки: Верхнее поле первое
Метод сжатия: С потерями
Бит/(Пиксели*Кадры): 0.544
Размер потока: 617 Мбайт (95%)
Библиотека кодирования: Ahead Nero

Аудио
Идентификатор: 128 (0x80)
Формат: AC-3
Формат/Информация: Audio Coding 3
Расширение режима: CM (complete main)
Вид битрейта: Постоянный
Битрейт: 192 Кбит/сек
Канал(ы): 2 канала(ов)
Расположение каналов: Front: L R
Частота: 48,0 КГц
Битовая глубина: 16 бит
Метод сжатия: С потерями
Размер потока: 21,0 Мбайт (3%)










Поделиться:




реклама партнёра


Вернуться к началу
 Профиль  
 
   Похожие торренты   Автор   Торрент   Размер 
В этой теме нет новых непрочитанных сообщений. Flo Rida - Collection Video clip (2010 - 2015, Rap, Hip-Hop, HDTVRip / WEBRip) [H.264/1080p-LQ]

Hestin

0 | 0

3.1 ГБ

В этой теме нет новых непрочитанных сообщений. Cacumen - Collection [1981-1984, Hard Rock, MP3]

PriZraK

0 | 2

409.42 МБ

В этой теме нет новых непрочитанных сообщений. Khaleesi Wilde / Wild and Horny (2015) HD 720p

Dile-1

227 | 64

363.59 МБ

В этой теме нет новых непрочитанных сообщений. America - Star Collection (4CD) [2010, Rock, MP3]

PriZraK

0 | 1

733.33 МБ

В этой теме нет новых непрочитанных сообщений. Karat - Collection [1978-2010, Rock, MP3]

PriZraK

0 | 3

3.65 ГБ

В этой теме нет новых непрочитанных сообщений. The Hollies - Star Collection (5CD) [2010, Rock, MP3]

PriZraK

0 | 6

634.37 МБ

В этой теме нет новых непрочитанных сообщений. Rainbow - Star Collection (4CD) [2010, Rock, MP3]

PriZraK

6 | 2

725.46 МБ


Начать новую тему Ответить на тему  [ 1 сообщение ] 




Для Мосгорсуда, Роскомнадзора и рекламодателей:: mosgorsud-torrent[собачка]yandex.ru