Торрент файл
скачать торрент магнет ссылка Добавлен: 08 янв 2012, 11:50
Размер: 4.71 ГБ
Сидеров: 3
Личеров: 3
Автор

СообщениеДобавлено: 08 янв 2012, 11:50 

Не в сети
Зам. Админа
Аватара пользователя
Дата регистрации:
02 дек 2010, 12:39
Спасибо: 12623 / 214
Сообщения: 28012
Slayer - Live Intrusion

Формат: DVD 9, DVD Video, MPEG 2, AC 3
Песня: Live Intrusion
Жанр: Thrash Metal
Продолжительность: 01:10:41
Год выпуска: 2010
Видео: MPEG 2 VIDEO, 720*480, (NTSC 4:3), 29.97 fps, 8988 kbps avg,0,868 bit/pixel
Аудио: 48.0 khz, AC-3, 2 ch, 256 kbps avg
Доп. информация: Концерт, состоявшийся 12 марта 1995 года в Меса, Аризона, США.
    Состав: Tom Araya - bass/vocals
    Kerry King - guitars
    Jeff Hanneman - guitars
    Paul Bostaph - drums
    Треклист:1. Raining Blood
    2. Killing Fields
    3. War Ensemble
    4. At Dawn They Sleep
    5. Divine Intervention
    6. Dittohead
    7. Captor Of Sin
    8. 213
    9. South of Heaven
    10. Sex, Murder, Art
    11. Mandatory Suicide
    12. Angel Of Death
    13. Hell Awaits
    14. Witching Hour (Venom Cover)
    15. Chemical Warfare
itle: Slayer - Live Intrusion
Size: 4.71 Gb ( 4 934 020,00 KBytes ) - DVD-9
Enabled regions: 1, 2, 3, 4, 5, 6, 7, 8

VTS_01 :
Play Length: 01:10:41
Video: NTSC 4:3 (720x480) VBR
Audio:
Not specified, AC3, 2/0 (L,R) ch, 256 kbps, Delay 0 mSec

* Menus Information *

VIDEO_TS Menu
Video:
NTSC 4:3 (720x480) VBR
Audio:
Not specified (Dolby AC3, 2 ch)
Language Unit :
Title Menu

VTS_01 Menu
Video:
NTSC 4:3 (720x480) VBR
Audio:
Not specified (Dolby AC3, 2 ch)
Language Unit :
Root Menu
Общее
Полное имя: D:\Torrents\Download\Slayer - Live Intrusion\VIDEO_TS\VTS_01_1.VOB
Формат: MPEG-PS
Размер файла: 1024 Мбайт
Продолжительность: 15 м.
Общий поток: 9432 Кбит/сек
Библиотека кодирования: encoded by TMPGEnc DVD Author 3 Version. 3.0.5.149

Видео
Идентификатор: 224 (0xE0)
Формат: MPEG Video
Версия формата: Version 2
Профиль формата: Main@Main
Параметр BVOP формата: Да
Параметр матрицы формата: По умолчанию
Параметры GOP формата: M=3, N=18
Продолжительность: 15 м.
Вид битрейта: Переменный
Битрейт: 8988 Кбит/сек
Номинальный битрейт: 9558 Кбит/сек
Ширина: 720 пикс.
Высота: 480 пикс.
Соотношение сторон: 4:3
Частота кадров: 29,970 кадр/сек
Стандарт вещания: NTSC
Цветовое пространство: YUV
Подвыборка цветности: 4:2:0
Битовая глубина: 8 бит
Тип развёртки: Чересстрочная
Порядок развёртки: Верхнее поле первое
Метод сжатия: С потерями
Бит/(Пиксели*Кадры): 0.868
Размер потока: 976 Мбайт (95%)
Библиотека кодирования: TMPGEnc DVD Author 3 Version. 3.0.5.149

Аудио
Идентификатор: 128 (0x80)
Формат: AC-3
Формат/Информация: Audio Coding 3
Расширение режима: CM (complete main)
Продолжительность: 15 м.
Вид битрейта: Постоянный
Битрейт: 256 Кбит/сек
Канал(ы): 2 канала(ов)
Расположение каналов: Front: L R
Частота: 48,0 КГц
Битовая глубина: 16 бит
Метод сжатия: С потерями
Размер потока: 27,8 Мбайт (3%)

Меню







[b]Поделиться:




реклама партнёра


Вернуться к началу
 Профиль  
 
   Похожие торренты   Автор   Торрент   Размер 
В этой теме нет новых непрочитанных сообщений. Within Temptation: Let Us Burn - Elements & Hydra Live In Concert [Symphonic Metal, Gothic Rock, Power Metal, 2014] BDRemux 1080i

Dracon

32 | 8

20.63 ГБ

В этой теме нет новых непрочитанных сообщений. Demon Slayer 3 [17.5.17] [RPG, Strategy, Fantasy, MMO, 2015] [Лицензия]

holokofi

0 | 0

542.12 МБ

В этой теме нет новых непрочитанных сообщений. Cinderella - Stripped [Live] (Hard Rock, Glam Metal. 2014) MP3

Aleksandr.ru

98 | 12

182.42 МБ

В этой теме нет новых непрочитанных сообщений. Stacked Racks (Anton Slayer, Cal Vista (Metro)) [2017 г., All Sex Big Boobs Big Butt, WEB-DL]

salma3

8 | 3

2 ГБ

В этой теме нет новых непрочитанных сообщений. C. C. Catch - Live at Copernicus Center [Pop, disco, live, 2015] WEB-DLRip-AVC

salma3

32 | 1

843.74 МБ

В этой теме нет новых непрочитанных сообщений. Баффи - истребительница вампиров / Buffy the Vampire Slayer [Ужасы, Комедия, Боевик, 1992] BDRip 720p, Mvo+Avo+Sub

salma3

58 | 16

4.37 ГБ

В этой теме нет новых непрочитанных сообщений. No Man's Land 44 / Земля без мужчин 44 (Anton Slayer, Video Team) [2008 г., All Girl / Lesbian, Threesome, Big tits., HDRip]

salma3

0 | 0

1.26 ГБ


Начать новую тему Ответить на тему  [ 1 сообщение ] 




Для Мосгорсуда, Роскомнадзора и рекламодателей:: mosgorsud-torrent[собачка]yandex.ru