Торрент файл
скачать торрент магнет ссылка Добавлен: 08 янв 2012, 11:49
Размер: 1.51 ГБ
Сидеров: 0
Личеров: 2
Автор

СообщениеДобавлено: 08 янв 2012, 11:49 

Не в сети
Зам. Админа
Аватара пользователя
Дата регистрации:
02 дек 2010, 12:39
Спасибо: 12625 / 214
Сообщения: 28010
Sodom - Lords Of Depravity Part 1

Формат: DVDRip, AVI, DivX, MP3
Песня: Lords Of Depravity Part 1
Жанр: Thrash Metal
Продолжительность: 01:36:25
Год выпуска: 2005
Видео: MPEG 4 VIDEO, 720*480, (4:3 NTSC), 25.0 fps, 1998 kbps, 0,231 bit/pixel
Аудио: 44,1 khz, MP 3, 2 ch, 224 kbps avg
Доп. информация: Концертная часть с двойного DVD Sodom "Lords Of Depravity Pt.1" Включает записи с концертовв Софии (2004) и на фестивалях "Wacken Open Air" (2001) и "With Full Force" (2003).
    Состав:Tom Angelripper - bass/vocals
    Bernd Kost - guitars
    Bobby Schottkovski - drums
01. Among The Weirdcong (mixclip)
02. Vice Of Killing (Sofia )
03. Outbreak of evil (Sofia)
04. Masquerade in blood (Sofia)
05. On tour worldwide
06. The Saw Is The Law (Mixclip)
07. Remember The Fallen (WFF )
08. Die Stumme Ursel (WFF)
09. M-16 (Rockhard )
10. Press Worldwide
11. Napalm In The Morning (Mixclip)
12. Nuclear Winter (Sofia )
13. Tombstone (Sofia)
14. Sodomized (Sofia)
15. Eat ME (Sofia)
16. Sodom Worldwide
17. Code Red Incl. Intro (Wacken )
18. Aber Bitte Mit Sahne (Wacken)
19. Wachturm (Wacken)
20. Agent Orange (Wacken)
21. Fans Worldwide
22. Sodomy And Lust (Sofia )
23. Witching Metal (Sofia)
24. Backstage (Sofia)
25. Ausgebombt (Sofia )
26. Ace Of Spades (Sofia)
27. Stalinhagel (Mixclip)
28. Outro[b]
Общее
Полное имя: D:\Video\Sodom\SODOM - Live Of Depravity Part1\Lords Of Depravity Part 1.avi
Формат: AVI
Формат/Информация: Audio Video Interleave
Профиль формата: OpenDML
Размер файла: 1,51 Гбайт
Продолжительность: 1 ч. 36 м.
Общий поток: 2235 Кбит/сек
Программа кодирования: Lavf51.12.1

Видео
Идентификатор: 0
Формат: MPEG-4 Visual
Профиль формата: Simple@L1
Параметр BVOP формата: Нет
Параметр QPel формата: Нет
Параметр GMC формата: Без точки перехода
Параметр матрицы формата: Default (H.263)
Идентификатор кодека: DX50
Идентификатор кодека/Подсказка: DivX 5
Продолжительность: 1 ч. 36 м.
Битрейт: 1998 Кбит/сек
Ширина: 720 пикс.
Высота: 480 пикс.
Соотношение сторон: 4:3
Частота кадров: 25,000 кадр/сек
Стандарт вещания: NTSC
Цветовое пространство: YUV
Подвыборка цветности: 4:2:0
Битовая глубина: 8 бит
Тип развёртки: Прогрессивная
Метод сжатия: С потерями
Бит/(Пиксели*Кадры): 0.231
Размер потока: 1,35 Гбайт (89%)
Библиотека кодирования: Lavc51.40.4

Аудио
Идентификатор: 1
Формат: MPEG Audio
Версия формата: Version 1
Профиль формата: Layer 3
Режим: Joint stereo
Расширение режима: MS Stereo
Идентификатор кодека: 55
Идентификатор кодека/Подсказка: MP3
Продолжительность: 33 м.
Вид битрейта: Постоянный
Битрейт: 224 Кбит/сек
Канал(ы): 2 канала(ов)
Частота: 44,1 КГц
Метод сжатия: С потерями
Размер потока: 52,9 Мбайт (3%)
Выравнивание: Соединение по промежуткам
Продолжительность промежутка: 76мс. (1,91 видеокадров)







[b]Поделиться:




реклама партнёра


Вернуться к началу
 Профиль  
 
   Похожие торренты   Автор   Торрент   Размер 
В этой теме нет новых непрочитанных сообщений. Traci Lords (Tracie Lords, Tracy Lords) MegaPack (114 роликов) [AllSex, Classic, BigTits] ♥ {Ultimate collection 1984-1986} Самая полная коллекция роликов с юной Трейси Лордс и в хорошем качестве

salma3

24 | 8

12.71 ГБ

В этой теме нет новых непрочитанных сообщений. Сборник клипов - Hard Rock and Metal: Part 4 [Rock, Metal, 2017] DVDRip

salma3

6 | 3

4.19 ГБ

В этой теме нет новых непрочитанных сообщений. Traci Lords - Sizzling Suburbia (1985) DVDRip-AVC

salma3

60 | 46

1.4 ГБ

В этой теме нет новых непрочитанных сообщений. Risen 3: Titan Lords [v.1.0] [+3 DLC] [RPG, 3D, 25014] [RePack]

Sykre

0 | 1

4.09 ГБ

В этой теме нет новых непрочитанных сообщений. Educating Mandy / L'initiation De Mandy / Обучение Мэнди (Royce Shepard, CDI Home Video) [1985 г., Feature, Classic, DVDRip] Christy Canyon, Gina Valentino, Heather Wayne, Traci Lords

salma3

38 | 13

1.2 ГБ

В этой теме нет новых непрочитанных сообщений. Lords of Xulima [Turn-based, RPG, Isometric, 2014] [Steam-Rip]

Sykre

0 | 0

1.62 ГБ

В этой теме нет новых непрочитанных сообщений. Wolcen: Lords of Mayhem [RPG (Rogue/Action), 3D, 3rd Person] [Steam-Rip]

Sykre

4 | 1

8.67 ГБ


Начать новую тему Ответить на тему  [ 1 сообщение ] 




Для Мосгорсуда, Роскомнадзора и рекламодателей:: mosgorsud-torrent[собачка]yandex.ru