Торрент файл
скачать торрент магнет ссылка Добавлен: 08 янв 2012, 11:47
Размер: 4.18 ГБ
Сидеров: 16
Личеров: 10
Автор

СообщениеДобавлено: 08 янв 2012, 11:47 

Не в сети
Зам. Админа
Аватара пользователя
Дата регистрации:
02 дек 2010, 12:39
Спасибо: 12461 / 214
Сообщения: 27968
VA - Запрещенные видеоклипы


Формат: DVD5, DVD Video, MPEG2, AC3
Название: Запрещенные видеоклипы Part 1
Жанр: Pop, Rock, R'n'B
Продолжительность: 01:51:54
Год выпуска: 2009

Видео: 720:576 (PAL 16:9), 25 fps, MPEG-2, ~4833 kbps avg, 0.466 bit/pixel
Аудио: 48 kHz, AC-3, 2 ch, 192.00 kbps avg

Доп. информация: Музыкальные видеоклипы эротического содержания. Не кампиляция.
Продолжаем серию "Запрещенных видеоклипов", правда, непонятно кем и за что ЗАПРЕЩЕНО.
Но раз выпущены такие DVD, предлагаю Вашему вниманию.

01 Adriano Celentano - Yuppi Du
02 Albino Superstars - My Girls
03 Alex C feat Y-Ass - Liebe zu dritt
04 Alex C feat Y-Ass - Sweetest Ass In The World
05 Backyard Babies - Look At You
06 Behemoth - Ov Fire And The Void
07 Benny Benassi - Satisfaction
08 Benny Benassi - Who's Your Daddy
09 Blank & Jones With Bobo - Perfect Silence
10 Blue System - Laila
11 Britney Spears - Gimme More
12 Britney Spears - I Just Wanna F.....
13 Britney Spears - Womanizer
14 Brooklyn bounce - Canda
15 Debauchery - Death Metal Warmachine
16 Deichkind - Komm Schon
17 Dir En Grey - Obscure
18 DJ Jean - Feel It
19 DJ Ozi - Juicy Pen
20 DJ Rockid ft. Lady Bee - Bad Men
21 DJ Tamara Sky - lick it
22 El Superbeasto
23 Him - Wicked Game
24 Hollywood - Undead
25 Julien-K - Kick The Bass
26 Kid Rock - Cowboy
27 Linni Meister - My Ass
28 Liroy - Kiedy
29 Lithuria - Dead Embryo Vomit
30 Make The Girl Dance - Baby Baby Baby

Общее
Формат: MPEG-PS
Общий поток: 5127 Кбит/сек

Видео
Идентификатор: 224 (0xE0)
Формат: MPEG Video
Версия формата: Version 2
Профиль формата: Main@Main
Параметр BVOP формата: Да
Параметр матрицы формата: По умолчанию
Вид битрейта: Переменный
Битрейт: 4833 Кбит/сек
Номинальный битрейт: 9608 Кбит/сек
Ширина: 720 пикс.
Высота: 576 пикс.
Соотношение сторон: 16:9
Частота кадров: 25,000 кадр/сек
Стандарт вещания: PAL
Цветовое пространство: YUV
Подвыборка цветности: 4:2:0
Битовая глубина: 8 бит
Тип развёртки: Прогрессивная
Метод сжатия: С потерями
Бит/(Пиксели*Кадры): 0.466
Размер потока: 176 Мбайт (94%)

Аудио
Идентификатор: 128 (0x80)
Формат: AC-3
Формат/Информация: Audio Coding 3
Расширение режима: CM (complete main)
Вид битрейта: Постоянный
Битрейт: 192 Кбит/сек
Канал(ы): 2 канала(ов)
Расположение каналов: Front: L R
Частота: 48,0 КГц
Битовая глубина: 16 бит
Метод сжатия: С потерями
Размер потока: 6,98 Мбайт (4%)










Поделиться:




реклама партнёра


Вернуться к началу
 Профиль  
 
   Похожие торренты   Автор   Торрент   Размер 
В этой теме нет новых непрочитанных сообщений. Александр Лаэртский и Запрещённые Барабанщики - Топтание Борщевых Тряпок [2011, Rock, Punk, MP3]

PriZraK

9 | 2

32.57 МБ

В этой теме нет новых непрочитанных сообщений. Static Cycle - Part 1: Hydrate [2010, Alt.Rock, Modern Rock, MP3]

PriZraK

0 | 1

51.74 МБ

В этой теме нет новых непрочитанных сообщений. Voicians - A Matter Of Time (Part 1) (EP, Deluxe Edition) [18 июня 2012, Industrial Rock, Electronic Rock, MP3]

PriZraK

0 | 1

189.3 МБ

В этой теме нет новых непрочитанных сообщений. Great White - Saturday Night Special (Ready For Rock 'N' Roll Part II) [2014, Hard Rock, MP3]

PriZraK

7 | 2

151.02 МБ

В этой теме нет новых непрочитанных сообщений. VA - Rock Ballads - Part One (2CD) [2012, Rock, MP3]

PriZraK

2 | 2

364.23 МБ

В этой теме нет новых непрочитанных сообщений. VA - Rock Ballads - Part Two (2CD) [2012, Rock, MP3]

PriZraK

0 | 2

366.35 МБ

В этой теме нет новых непрочитанных сообщений. Agamemnon - Part I & II [1981, Progressive Rock, MP3]

PriZraK

0 | 1

93.32 МБ


Начать новую тему Ответить на тему  [ 1 сообщение ] 




Для Мосгорсуда, Роскомнадзора и рекламодателей:: mosgorsud-torrent[собачка]yandex.ru