Торрент файл
скачать торрент магнет ссылка Добавлен: 08 янв 2012, 11:46
Размер: 7.94 ГБ
Сидеров: 0
Личеров: 6
Автор

СообщениеДобавлено: 08 янв 2012, 11:46 

Не в сети
Зам. Админа
Аватара пользователя
Дата регистрации:
02 дек 2010, 12:39
Спасибо: 12458 / 214
Сообщения: 27968
VA - Hard Bass 2011: The Live Registration

Формат: BDRip, MKV, H.264, AC3
Песня: Hard Bass 2011: The Live Registration
Жанр: Hardstyle
Продолжительность: 01:40:00
Год выпуска: 2011
Видео: 1 920 х 1 080i, (16:9 , 4:2:0), AVC, at 25.000 fps, 10,9 Mbps,0.209 bits/pixel
Аудио: 48 kHz, AC-3, 6 ch (Front: L C R, Side: L R, LFE), 448 Kbps
Доп. информация:

Треклист:
==============

1. Team Red
    Luna
    Alphaverb
    Josh & Wesz
    Wildstylez LIVE
2. Team Green
    Headhunterz
    Tuneboy
    Noisecontrollers
    Psyko Punkz LIVE
3. Team Blue
    Zany
    Ran-D
    Bioweapon
    Crypsis LIVE
4. Team Yellow
    B-Front
    Max Enforcer
    Alpha?
    Tatanka & Zatox present Wild Motherfuckers LIVE


    Общее
    Уникальный идентификатор: 226775017576834594108483226432346596884 (0xAA9B479A5AD1A842A43007EF35892614)
    Полное имя: F:\Tfile - rs Bandito music\Hard Bass 2011 - The Live Registration (BDRip 1080p).mkv
    Формат: Matroska
    Размер файла: 7,94 Гбайт
    Продолжительность: 1 ч. 40 м.
    Общий поток: 11,3 Мбит/сек
    Название фильма: VA - Hard Bass 2011: The Live Registration
    Дата кодирования: UTC 2011-05-31 17:42:17
    Программа кодирования: mkvmerge v4.7.0 ('Just Like You Imagined') сборка от Apr 21 2011 01:13:14
    Библиотека кодирования: libebml v1.2.0 + libmatroska v1.1.0

    Видео
    Идентификатор: 1
    Формат: AVC
    Формат/Информация: Advanced Video Codec
    Профиль формата: High@L4.1
    Параметр CABAC формата: Да
    Параметр ReFrames формата: 11 кадров
    Идентификатор кодека: V_MPEG4/ISO/AVC
    Продолжительность: 1 ч. 40 м.
    Битрейт: 10,9 Мбит/сек
    Ширина: 1920 пикс.
    Высота: 1080 пикс.
    Соотношение сторон: 16:9
    Частота кадров: 25,000 кадр/сек
    Цветовое пространство: YUV
    Подвыборка цветности: 4:2:0
    Битовая глубина: 8 бит
    Тип развёртки: Прогрессивная
    Бит/(Пиксели*Кадры): 0.209
    Размер потока: 7,47 Гбайт (94%)
    Заголовок: VA - Hard Bass 2011: The Live Registration
    Библиотека кодирования: x264 core 114 r1924 08d04a4
    Настройки программы: cabac=1 / ref=11 / deblock=1:-2:-1 / analyse=0x3:0x113 / me=umh / subme=9 / psy=1 / psy_rd=1.00:0.00 / mixed_ref=1 / me_range=32 / chroma_me=1 / trellis=2 / 8x8dct=1 / cqm=0 / deadzone=21,11 / fast_pskip=0 / chroma_qp_offset=-4 / threads=6 / sliced_threads=0 / nr=0 / decimate=1 / interlaced=0 / constrained_intra=0 / bframes=5 / b_pyramid=2 / b_adapt=2 / b_bias=0 / direct=3 / weightb=1 / open_gop=0 / weightp=2 / keyint=250 / keyint_min=25 / scenecut=40 / intra_refresh=0 / rc_lookahead=110 / rc=2pass / mbtree=1 / bitrate=10860 / ratetol=1.0 / qcomp=0.60 / qpmin=10 / qpmax=51 / qpstep=4 / cplxblur=20.0 / qblur=0.5 / vbv_maxrate=50000 / vbv_bufsize=50000 / nal_hrd=none / ip_ratio=1.40 / aq=1:1.00
    Язык: English

    Аудио
    Идентификатор: 2
    Формат: AC-3
    Формат/Информация: Audio Coding 3
    Расширение режима: CM (complete main)
    Идентификатор кодека: A_AC3
    Продолжительность: 1 ч. 40 м.
    Вид битрейта: Постоянный
    Битрейт: 448 Кбит/сек
    Каналы: 6 каналов
    Расположение каналов: Front: L C R, Side: L R, LFE
    Частота: 48,0 КГц
    Битовая глубина: 16 бит
    Метод сжатия: С потерями
    Размер потока: 322 Мбайт (4%)
    Заголовок: AC3 5.1 448 kbps
    Язык: English














Release Group:
Поделиться:




реклама партнёра


Вернуться к началу
 Профиль  
 
   Похожие торренты   Автор   Торрент   Размер 
В этой теме нет новых непрочитанных сообщений. ZZ Top - Live In Lewiston [2011, Hard Rock, MP3]

PriZraK

0 | 1

184.01 МБ

В этой теме нет новых непрочитанных сообщений. Europe – Live Look At Eden (2CD) [2011, Hard Rock, MP3]

PriZraK

0 | 3

141.53 МБ

В этой теме нет новых непрочитанных сообщений. Uriah Heep - Live In Armenia (2CD) [2011, Hard Rock, MP3]

PriZraK

1 | 1

236.81 МБ

В этой теме нет новых непрочитанных сообщений. Lita Ford - Live & Deadly (Live) [2014, Hard Rock, MP3]

PriZraK

5 | 3

144.57 МБ

В этой теме нет новых непрочитанных сообщений. Sabaton - World War Live-Battle of the Baltic Sea (Live) [2011, Power Metal, MP3]

PriZraK

0 | 1

293.19 МБ

В этой теме нет новых непрочитанных сообщений. Santana - Corazon: Live from Mexico - Live It To Believe It [LatinRock, BluesRock, 2014] BDRip 720p

Dracon

26 | 4

5.46 ГБ

В этой теме нет новых непрочитанных сообщений. Несдержанные обещания / Hard promises [Мелодрама, 1991] HDTV 1080i, Dvo

salma3

17 | 28

4.15 ГБ


Начать новую тему Ответить на тему  [ 1 сообщение ] 




Для Мосгорсуда, Роскомнадзора и рекламодателей:: mosgorsud-torrent[собачка]yandex.ru