Торрент файл
скачать торрент магнет ссылка Добавлен: 08 янв 2012, 11:45
Размер: 4.18 ГБ
Сидеров: 22
Личеров: 4
Автор

СообщениеДобавлено: 08 янв 2012, 11:45 

Не в сети
Зам. Админа
Аватара пользователя
Дата регистрации:
02 дек 2010, 12:39
Спасибо: 12461 / 214
Сообщения: 27968
VA -Запрещенные видеоклипыPart 2


Формат: DVD5, DVD Video, MPEG2, AC3
Песня:Запрещенные видеоклипыPart 2
Жанр: Pop, Rock, R'n'B
Продолжительность: 01:48:12
Год выпуска: 2009

Видео: 720:576 (PAL 16:9), 25 fps, MPEG-2, ~5109 kbps avg, 0.493 bit/pixel
Аудио: 48 kHz, AC-3, 2 ch, 192.00 kbps avg

Доп. информация: Музыкальные видеоклипы эротического содержания. Не кампиляция.
Продолжаем серию "Запрещенных видеоклипов", правда, непонятно кем и за что ЗАПРЕЩЕНО.
Но раз выпущены такие DVD, предлагаю Вашему вниманию вторую часть.


01. Kolumbieca feat M glata - Mrusen Ritum
02. Martin Solveig - Rocking Music
03. Maximilian feat.Grasu XXL - Pizda La Volan
04. Monster Magnet - Heads Explode
05. Monster Magnet - Unbroken
06. Naked - Du hast so schones weiches haar
07. Naujieji Lietuviai - Ruri Ruri
08. Nemo - Pumpum
09. Original Cast - What Am I Supposed To Do
10. Papa Roach - I Almost Told You That I Loved You
11. Pepa - Sexy
12. Peran - We Want To Be Free
13. Persian Rugs - Be A Woman
14. Platinum Girls - Ignite My Fantasy
15. Puya feat Alex - Sus pe bar
16. Queen - Bicycle Rate
17. Rammstein - Pussy
18. Roma Kenga - Summer Night City
19. Scooter - Nessaja
20. Sido Ft Harris - Fuffies Im Club
21. Star Tattoed - Make Me High
22. Sunblock - First Time
23. Sunblock & Sandy - Baby Baby
24. Tainted - Love
25. Total - Kamasutra
26. Ultrabeat vs Darren Styles - Sure Feels Good
27. Umbra Et Imago - Sweet Gwendoline
28. Umbra Et Imago - Viva Lesbian
29. Verbal feat. puya - toata noaptea
30. Ville Valo & Natalie Avelon - Summer Wine

Общее
Формат: MPEG-PS
Общий поток: 5408 Кбит/сек

Видео
Идентификатор: 224 (0xE0)
Формат: MPEG Video
Версия формата: Version 2
Профиль формата: Main@Main
Параметр BVOP формата: Да
Параметр матрицы формата: По умолчанию
Вид битрейта: Переменный
Битрейт: 5109 Кбит/сек
Номинальный битрейт: 9608 Кбит/сек
Ширина: 720 пикс.
Высота: 576 пикс.
Соотношение сторон: 16:9
Частота кадров: 25,000 кадр/сек
Стандарт вещания: PAL
Цветовое пространство: YUV
Подвыборка цветности: 4:2:0
Битовая глубина: 8 бит
Тип развёртки: Прогрессивная
Метод сжатия: С потерями
Бит/(Пиксели*Кадры): 0.493
Размер потока: 181 Мбайт (94%)

Аудио
Идентификатор: 128 (0x80)
Формат: AC-3
Формат/Информация: Audio Coding 3
Расширение режима: CM (complete main)
Вид битрейта: Постоянный
Битрейт: 192 Кбит/сек
Канал(ы): 2 канала(ов)
Расположение каналов: Front: L R
Частота: 48,0 КГц
Битовая глубина: 16 бит
Метод сжатия: С потерями
Размер потока: 6,80 Мбайт (4%) [/field]










Поделиться:




реклама партнёра


Вернуться к началу
 Профиль  
 
   Похожие торренты   Автор   Торрент   Размер 
В этой теме нет новых непрочитанных сообщений. Александр Лаэртский и Запрещённые Барабанщики - Топтание Борщевых Тряпок [2011, Rock, Punk, MP3]

PriZraK

9 | 2

32.57 МБ

В этой теме нет новых непрочитанных сообщений. Static Cycle - Part 1: Hydrate [2010, Alt.Rock, Modern Rock, MP3]

PriZraK

0 | 1

51.74 МБ

В этой теме нет новых непрочитанных сообщений. Great White - Saturday Night Special (Ready For Rock 'N' Roll Part II) [2014, Hard Rock, MP3]

PriZraK

7 | 2

151.02 МБ

В этой теме нет новых непрочитанных сообщений. Voicians - A Matter Of Time (Part 1) (EP, Deluxe Edition) [18 июня 2012, Industrial Rock, Electronic Rock, MP3]

PriZraK

0 | 1

189.3 МБ

В этой теме нет новых непрочитанных сообщений. VA - Rock Ballads - Part One (2CD) [2012, Rock, MP3]

PriZraK

2 | 2

364.23 МБ

В этой теме нет новых непрочитанных сообщений. VA - Rock Ballads - Part Two (2CD) [2012, Rock, MP3]

PriZraK

0 | 2

366.35 МБ

В этой теме нет новых непрочитанных сообщений. Agamemnon - Part I & II [1981, Progressive Rock, MP3]

PriZraK

0 | 1

93.32 МБ


Начать новую тему Ответить на тему  [ 1 сообщение ] 




Для Мосгорсуда, Роскомнадзора и рекламодателей:: mosgorsud-torrent[собачка]yandex.ru